  0
SECTION
  2
HEADER
  9
$ACADVER
  1
AC1009
  9
$INSBASE
 10
0.0
 20
0.0
 30
0.0
  9
$EXTMIN
 10
-13590.861326878739
 20
704.06216008323327
 30
0.0
  9
$EXTMAX
 10
-9260.4924258209612
 20
3530.050589513216
 30
0.0
  9
$LIMMIN
 10
0.0
 20
0.0
  9
$LIMMAX
 10
420.0
 20
297.0
  9
$ORTHOMODE
 70
     0
  9
$REGENMODE
 70
     1
  9
$FILLMODE
 70
     1
  9
$QTEXTMODE
 70
     0
  9
$MIRRTEXT
 70
     1
  9
$DRAGMODE
 70
     2
  9
$LTSCALE
 40
1.0
  9
$OSMODE
 70
   163
  9
$ATTMODE
 70
     1
  9
$TEXTSIZE
 40
40.0
  9
$TRACEWID
 40
1.0
  9
$TEXTSTYLE
  7
STANDARD
  9
$CLAYER
  8
0
  9
$CELTYPE
  6
BYLAYER
  9
$CECOLOR
 62
   256
  9
$DIMSCALE
 40
1.0
  9
$DIMASZ
 40
50.0
  9
$DIMEXO
 40
40.0
  9
$DIMDLI
 40
40.0
  9
$DIMRND
 40
0.0
  9
$DIMDLE
 40
0.0
  9
$DIMEXE
 40
1.25
  9
$DIMTP
 40
0.0
  9
$DIMTM
 40
0.0
  9
$DIMTXT
 40
100.0
  9
$DIMCEN
 40
2.5
  9
$DIMTSZ
 40
0.0
  9
$DIMTOL
 70
     0
  9
$DIMLIM
 70
     0
  9
$DIMTIH
 70
     0
  9
$DIMTOH
 70
     0
  9
$DIMSE1
 70
     0
  9
$DIMSE2
 70
     0
  9
$DIMTAD
 70
     1
  9
$DIMZIN
 70
     8
  9
$DIMBLK
  1

  9
$DIMASO
 70
     1
  9
$DIMSHO
 70
     1
  9
$DIMPOST
  1

  9
$DIMAPOST
  1

  9
$DIMALT
 70
     0
  9
$DIMALTD
 70
     2
  9
$DIMALTF
 40
0.0394
  9
$DIMLFAC
 40
1.0
  9
$DIMTOFL
 70
     1
  9
$DIMTVP
 40
0.0
  9
$DIMTIX
 70
     0
  9
$DIMSOXD
 70
     0
  9
$DIMSAH
 70
     0
  9
$DIMBLK1
  1

  9
$DIMBLK2
  1

  9
$DIMSTYLE
  2
STANDARD
  9
$DIMCLRD
 70
     0
  9
$DIMCLRE
 70
     0
  9
$DIMCLRT
 70
     0
  9
$DIMTFAC
 40
0.0625
  9
$DIMGAP
 40
40.0
  9
$LUNITS
 70
     2
  9
$LUPREC
 70
     4
  9
$SKETCHINC
 40
1.0
  9
$FILLETRAD
 40
0.0
  9
$AUNITS
 70
     0
  9
$AUPREC
 70
     0
  9
$MENU
  1
acad
  9
$ELEVATION
 40
0.0
  9
$PELEVATION
 40
0.0
  9
$THICKNESS
 40
0.0
  9
$LIMCHECK
 70
     0
  9
$BLIPMODE
 70
     0
  9
$CHAMFERA
 40
10.0
  9
$CHAMFERB
 40
10.0
  9
$SKPOLY
 70
     0
  9
$TDCREATE
 40
2454888.4815013888
  9
$TDUPDATE
 40
2455209.7210676498
  9
$TDINDWG
 40
0.1687340625
  9
$TDUSRTIMER
 40
0.1687340625
  9
$USRTIMER
 70
     1
  9
$ANGBASE
 50
0.0
  9
$ANGDIR
 70
     0
  9
$PDMODE
 70
    98
  9
$PDSIZE
 40
0.0
  9
$PLINEWID
 40
0.0
  9
$COORDS
 70
     1
  9
$SPLFRAME
 70
     0
  9
$SPLINETYPE
 70
     6
  9
$SPLINESEGS
 70
     8
  9
$ATTDIA
 70
     0
  9
$ATTREQ
 70
     1
  9
$HANDLING
 70
     1
  9
$HANDSEED
  5
8F3
  9
$SURFTAB1
 70
     6
  9
$SURFTAB2
 70
     6
  9
$SURFTYPE
 70
     6
  9
$SURFU
 70
     6
  9
$SURFV
 70
     6
  9
$UCSNAME
  2

  9
$UCSORG
 10
0.0
 20
0.0
 30
0.0
  9
$UCSXDIR
 10
1.0
 20
0.0
 30
0.0
  9
$UCSYDIR
 10
0.0
 20
1.0
 30
0.0
  9
$PUCSNAME
  2

  9
$PUCSORG
 10
0.0
 20
0.0
 30
0.0
  9
$PUCSXDIR
 10
1.0
 20
0.0
 30
0.0
  9
$PUCSYDIR
 10
0.0
 20
1.0
 30
0.0
  9
$USERI1
 70
     0
  9
$USERI2
 70
     0
  9
$USERI3
 70
     0
  9
$USERI4
 70
     0
  9
$USERI5
 70
     0
  9
$USERR1
 40
0.0
  9
$USERR2
 40
0.0
  9
$USERR3
 40
0.0
  9
$USERR4
 40
0.0
  9
$USERR5
 40
0.0
  9
$WORLDVIEW
 70
     1
  9
$SHADEDGE
 70
     3
  9
$SHADEDIF
 70
    70
  9
$TILEMODE
 70
     1
  9
$MAXACTVP
 70
    16
  9
$PLIMCHECK
 70
     0
  9
$PEXTMIN
 10
1.0000000000000000E+020
 20
1.0000000000000000E+020
 30
1.0000000000000000E+020
  9
$PEXTMAX
 10
-1.0000000000000000E+020
 20
-1.0000000000000000E+020
 30
-1.0000000000000000E+020
  9
$PLIMMIN
 10
0.0
 20
0.0
  9
$PLIMMAX
 10
420.0
 20
297.0
  9
$UNITMODE
 70
     0
  9
$VISRETAIN
 70
     0
  9
$PLINEGEN
 70
     0
  9
$PSLTSCALE
 70
     1
  0
ENDSEC
  0
SECTION
  2
TABLES
  0
TABLE
  2
VPORT
 70
     1
  0
VPORT
  2
*ACTIVE
 70
     0
 10
0.0
 20
0.0
 11
1.0
 21
1.0
 12
-10005.49047947464
 22
2117.0371405250612
 13
0.0
 23
0.0
 14
10.0
 24
10.0
 15
10.0
 25
10.0
 16
0.0
 26
0.0
 36
1.0
 17
0.0
 27
0.0
 37
0.0
 40
2860.2010553224309
 41
2.9570552147239249
 42
50.0
 43
0.0
 44
0.0
 50
0.0
 51
0.0
 71
     0
 72
   100
 73
     1
 74
     0
 75
     0
 76
     0
 77
     0
 78
     0
  0
ENDTAB
  0
TABLE
  2
LTYPE
 70
     1
  0
LTYPE
  2
CONTINUOUS
 70
     0
  3
Solid line
 72
    65
 73
     0
 40
0.0
  0
ENDTAB
  0
TABLE
  2
LAYER
 70
     6
  0
LAYER
  2
0
 70
     0
 62
     7
  6
CONTINUOUS
  0
LAYER
  2
CORTE
 70
     0
 62
     1
  6
CONTINUOUS
  0
LAYER
  2
CORTE1
 70
     0
 62
     5
  6
CONTINUOUS
  0
LAYER
  2
DIBU
 70
     0
 62
     7
  6
CONTINUOUS
  0
LAYER
  2
AUX
 70
     0
 62
     7
  6
CONTINUOUS
  0
LAYER
  2
DEFPOINTS
 70
     0
 62
     7
  6
CONTINUOUS
  0
ENDTAB
  0
TABLE
  2
STYLE
 70
     1
  0
STYLE
  2
STANDARD
 70
     0
 40
0.0
 41
1.0
 50
0.0
 71
     0
 42
40.0
  3
txt
  4

  0
ENDTAB
  0
TABLE
  2
VIEW
 70
     0
  0
ENDTAB
  0
TABLE
  2
UCS
 70
     0
  0
ENDTAB
  0
TABLE
  2
APPID
 70
     7
  0
APPID
  2
ACAD
 70
     0
  0
APPID
  2
ACAD_EXEMPT_FROM_CAD_STANDARDS
 70
     0
  0
APPID
  2
ACAD_PSEXT
 70
     0
  0
APPID
  2
ACAD_MLEADERVER
 70
     0
  0
APPID
  2
ACADANNOPO
 70
     0
  0
APPID
  2
ACAD_DSTYLE_DIMJAG
 70
     0
  0
APPID
  2
ACAD_DSTYLE_DIMTALN
 70
     0
  0
ENDTAB
  0
TABLE
  2
DIMSTYLE
 70
     1
  0
DIMSTYLE
  2
STANDARD
 70
     0
  3

  4

  5

  6

  7

 40
1.0
 41
0.18
 42
0.0625
 43
0.38
 44
0.18
 45
0.0
 46
0.0
 47
0.0
 48
0.0
140
0.18
141
0.09
142
0.0
143
25.399999999999999
144
1.0
145
0.0
146
1.0
147
0.09
 71
     0
 72
     0
 73
     1
 74
     1
 75
     0
 76
     0
 77
     0
 78
     0
170
     0
171
     2
172
     0
173
     0
174
     0
175
     0
176
     0
177
     0
178
     0
  0
ENDTAB
  0
ENDSEC
  0
SECTION
  2
BLOCKS
  0
BLOCK
  8
0
  2
$MODEL_SPACE
 70
     0
 10
0.0
 20
0.0
 30
0.0
  3
$MODEL_SPACE
  1

  0
ENDBLK
  5
3B
  8
0
  0
BLOCK
 67
     1
  8
0
  2
$PAPER_SPACE
 70
     0
 10
0.0
 20
0.0
 30
0.0
  3
$PAPER_SPACE
  1

  0
ENDBLK
  5
39
 67
     1
  8
0
  0
BLOCK
  8
0
  2
*D9
 70
     1
 10
0.0
 20
0.0
 30
0.0
  3
*D9
  1

  0
LINE
  5
8A9
  8
0
 62
     0
 10
-9485.8612428787383
 20
1679.617061745837
 30
0.0
 11
-9267.5757591542952
 21
1679.617061745837
 31
0.0
  0
LINE
  5
8AA
  8
0
 62
     0
 10
-9485.8612428787383
 20
2929.6172637458399
 30
0.0
 11
-9267.5757591542952
 21
2929.6172637458399
 31
0.0
  0
LINE
  5
8AB
  8
0
 62
     0
 10
-9268.8257591542933
 20
1729.617061745837
 30
0.0
 11
-9268.8257591542933
 21
2879.617263745839
 31
0.0
  0
SOLID
  5
8AC
  8
0
 62
     0
 10
-9277.1590924876291
 20
1729.617061745837
 30
0.0
 11
-9260.4924258209612
 21
1729.617061745837
 31
0.0
 12
-9268.8257591542933
 22
1679.617061745837
 32
0.0
 13
-9268.8257591542933
 23
1679.617061745837
 33
0.0
  0
SOLID
  5
8AD
  8
0
 62
     0
 10
-9277.1590924876291
 20
2879.617263745839
 30
0.0
 11
-9260.4924258209612
 21
2879.617263745839
 31
0.0
 12
-9268.8257591542933
 22
2929.6172637458399
 32
0.0
 13
-9268.8257591542933
 23
2929.6172637458399
 33
0.0
  0
TEXT
  8
0
  40
100
  5
8EE
  62
0
  72
0
  71
0
 10
-9559.92
 20
2127.62
 30
0.000000
  1
1250
  0
POINT
  5
8AF
  8
DEFPOINTS
 62
     0
 10
-9525.8612428787383
 20
1679.617061745837
 30
0.0
  0
POINT
  5
8B0
  8
DEFPOINTS
 62
     0
 10
-9525.8612428787383
 20
2929.6172637458399
 30
0.0
  0
POINT
  5
8B1
  8
DEFPOINTS
 62
     0
 10
-9268.8257591542933
 20
2929.6172637458399
 30
0.0
  0
ENDBLK
  5
6F2
  8
0
  0
BLOCK
  8
0
  2
*D11
 70
     1
 10
0.0
 20
0.0
 30
0.0
  3
*D11
  1

  0
LINE
  5
8B6
  8
0
 62
     0
 10
-9525.8612428787383
 20
2969.6172637458399
 30
0.0
 11
-9525.8612428787383
 21
3106.1651090110508
 31
0.0
  0
LINE
  5
8B7
  8
0
 62
     0
 10
-9825.8612488787403
 20
2969.6173257458399
 30
0.0
 11
-9825.8612488787403
 21
3106.1651090110508
 31
0.0
  0
LINE
  5
8B8
  8
0
 62
     0
 10
-9575.8612428787383
 20
3104.9151090110508
 30
0.0
 11
-9775.8612488787403
 21
3104.9151090110508
 31
0.0
  0
TEXT
  8
0
  40
100
  5
8EF
  62
0
  72
0
  71
0
 10
-9875.86
 20
3040.26
 30
0.000000
  1
300
  0
SOLID
  5
8BA
  8
0
 62
     0
 10
-9575.8612428787383
 20
3113.2484423443848
 30
0.0
 11
-9575.8612428787383
 21
3096.5817756777178
 31
0.0
 12
-9525.8612428787383
 22
3104.9151090110508
 32
0.0
 13
-9525.8612428787383
 23
3104.9151090110508
 33
0.0
  0
SOLID
  5
8BB
  8
0
 62
     0
 10
-9775.8612488787403
 20
3113.2484423443848
 30
0.0
 11
-9775.8612488787403
 21
3096.5817756777178
 31
0.0
 12
-9825.8612488787403
 22
3104.9151090110508
 32
0.0
 13
-9825.8612488787403
 23
3104.9151090110508
 33
0.0
  0
POINT
  5
8BC
  8
DEFPOINTS
 62
     0
 10
-9525.8612428787383
 20
2929.6172637458399
 30
0.0
  0
POINT
  5
8BD
  8
DEFPOINTS
 62
     0
 10
-9825.8612488787403
 20
2929.6173257458399
 30
0.0
  0
POINT
  5
8BE
  8
DEFPOINTS
 62
     0
 10
-9825.8612488787403
 20
3104.9151090110508
 30
0.0
  0
ENDBLK
  5
729
  8
0
  0
BLOCK
  8
0
  2
*D13
 70
     1
 10
0.0
 20
0.0
 30
0.0
  3
*D13
  1

  0
LINE
  5
8C7
  8
0
 62
     0
 10
-9825.8612488787403
 20
2969.6173257458399
 30
0.0
 11
-9825.8612488787403
 21
3107.4151090110508
 31
0.0
  0
LINE
  5
8C8
  8
0
 62
     0
 10
-11325.861325878741
 20
2969.6173257458399
 30
0.0
 11
-11325.861325878741
 21
3107.4151090110508
 31
0.0
  0
LINE
  5
8C9
  8
0
 62
     0
 10
-9875.8612488787421
 20
3106.1651090110508
 30
0.0
 11
-11275.861325878741
 21
3106.1651090110508
 31
0.0
  0
SOLID
  5
8CA
  8
0
 62
     0
 10
-9875.8612488787421
 20
3114.4984423443839
 30
0.0
 11
-9875.8612488787421
 21
3097.8317756777169
 31
0.0
 12
-9825.8612488787403
 22
3106.1651090110508
 32
0.0
 13
-9825.8612488787403
 23
3106.1651090110508
 33
0.0
  0
SOLID
  5
8CB
  8
0
 62
     0
 10
-11275.861325878741
 20
3114.4984423443839
 30
0.0
 11
-11275.861325878741
 21
3097.8317756777169
 31
0.0
 12
-11325.861325878741
 22
3106.1651090110508
 32
0.0
 13
-11325.861325878741
 23
3106.1651090110508
 33
0.0
  0
TEXT
  8
0
  40
100
  5
8F0
  62
0
  72
0
  71
0
 10
-10775.9
 20
3020.26
 30
0.000000
  1
1500
  0
POINT
  5
8CD
  8
DEFPOINTS
 62
     0
 10
-9825.8612488787403
 20
2929.6173257458399
 30
0.0
  0
POINT
  5
8CE
  8
DEFPOINTS
 62
     0
 10
-11325.861325878741
 20
2929.6173257458399
 30
0.0
  0
POINT
  5
8CF
  8
DEFPOINTS
 62
     0
 10
-11325.861325878741
 20
3106.1651090110508
 30
0.0
  0
ENDBLK
  5
75F
  8
0
  0
BLOCK
  8
0
  2
*D14
 70
     1
 10
0.0
 20
0.0
 30
0.0
  3
*D14
  1

  0
LINE
  5
8D0
  8
0
 62
     0
 10
-12325.861325878741
 20
2969.6173257458399
 30
0.0
 11
-12325.861325878741
 21
3107.4151090110508
 31
0.0
  0
LINE
  5
8D1
  8
0
 62
     0
 10
-11325.861325878741
 20
2969.6173257459131
 30
0.0
 11
-11325.861325878741
 21
3107.4151090110508
 31
0.0
  0
LINE
  5
8D2
  8
0
 62
     0
 10
-12275.861325878741
 20
3106.1651090110508
 30
0.0
 11
-11375.861325878741
 21
3106.1651090110508
 31
0.0
  0
SOLID
  5
8D3
  8
0
 62
     0
 10
-12275.861325878741
 20
3114.4984423443839
 30
0.0
 11
-12275.861325878741
 21
3097.8317756777169
 31
0.0
 12
-12325.861325878741
 22
3106.1651090110508
 32
0.0
 13
-12325.861325878741
 23
3106.1651090110508
 33
0.0
  0
SOLID
  5
8D4
  8
0
 62
     0
 10
-11375.861325878741
 20
3114.4984423443839
 30
0.0
 11
-11375.861325878741
 21
3097.8317756777169
 31
0.0
 12
-11325.861325878741
 22
3106.1651090110508
 32
0.0
 13
-11325.861325878741
 23
3106.1651090110508
 33
0.0
  0
TEXT
  8
0
  40
100
  5
8F1
  62
0
  72
0
  71
0
 10
-12025.9
 20
3020.26
 30
0.000000
  1
1000
  0
POINT
  5
8D6
  8
DEFPOINTS
 62
     0
 10
-12325.861325878741
 20
2929.6173257458399
 30
0.0
  0
POINT
  5
8D7
  8
DEFPOINTS
 62
     0
 10
-11325.861325878741
 20
2929.6173257459131
 30
0.0
  0
POINT
  5
8D8
  8
DEFPOINTS
 62
     0
 10
-11325.861325878741
 20
3106.1651090110508
 30
0.0
  0
ENDBLK
  5
777
  8
0
  0
BLOCK
  8
0
  2
*D15
 70
     1
 10
0.0
 20
0.0
 30
0.0
  3
*D15
  1

  0
LINE
  5
8D9
  8
0
 62
     0
 10
-12325.861325878741
 20
2969.6173257458399
 30
0.0
 11
-12325.861325878741
 21
3107.4151090110508
 31
0.0
  0
LINE
  5
8DA
  8
0
 62
     0
 10
-12825.861325878741
 20
2969.6173257458399
 30
0.0
 11
-12825.861325878741
 21
3107.4151090110508
 31
0.0
  0
LINE
  5
8DB
  8
0
 62
     0
 10
-12375.861325878741
 20
3106.1651090110508
 30
0.0
 11
-12775.861325878741
 21
3106.1651090110508
 31
0.0
  0
SOLID
  5
8DC
  8
0
 62
     0
 10
-12375.861325878741
 20
3114.4984423443839
 30
0.0
 11
-12375.861325878741
 21
3097.8317756777169
 31
0.0
 12
-12325.861325878741
 22
3106.1651090110508
 32
0.0
 13
-12325.861325878741
 23
3106.1651090110508
 33
0.0
  0
SOLID
  5
8DD
  8
0
 62
     0
 10
-12775.861325878741
 20
3114.4984423443839
 30
0.0
 11
-12775.861325878741
 21
3097.8317756777169
 31
0.0
 12
-12825.861325878741
 22
3106.1651090110508
 32
0.0
 13
-12825.861325878741
 23
3106.1651090110508
 33
0.0
  0
TEXT
  8
0
  40
100
  5
8F2
  62
0
  72
0
  71
0
 10
-12775.9
 20
3020.26
 30
0.000000
  1
500
  0
POINT
  5
8DF
  8
DEFPOINTS
 62
     0
 10
-12325.861325878741
 20
2929.6173257458399
 30
0.0
  0
POINT
  5
8E0
  8
DEFPOINTS
 62
     0
 10
-12825.861325878741
 20
2929.6173257458399
 30
0.0
  0
POINT
  5
8E1
  8
DEFPOINTS
 62
     0
 10
-12825.861325878741
 20
3106.1651090110508
 30
0.0
  0
ENDBLK
  5
798
  8
0
  0
BLOCK
  8
0
  2
*U18
 70
     1
 10
0.0
 20
0.0
 30
0.0
  3
*U18
  1

  0
TEXT
  5
883
  8
0
 62
     0
 10
-9327.9200097353223
 20
2240.619891258797
 30
0.0
 40
40.0
  1
1250
 50
90.0
  0
ENDBLK
  5
885
  8
0
  0
BLOCK
  8
0
  2
*U19
 70
     1
 10
0.0
 20
0.0
 30
0.0
  3
*U19
  1

  0
TEXT
  5
887
  8
0
 62
     0
 10
-9722.4506046781935
 20
3176.7119693041859
 30
0.0
 40
40.0
  1
300
  0
ENDBLK
  5
889
  8
0
  0
BLOCK
  8
0
  2
*U20
 70
     1
 10
0.0
 20
0.0
 30
0.0
  3
*U20
  1

  0
TEXT
  5
88B
  8
0
 62
     0
 10
-10639.858558865781
 20
3178.2022381258071
 30
0.0
 40
40.0
  1
1500
  0
ENDBLK
  5
88D
  8
0
  0
BLOCK
  8
0
  2
*U21
 70
     1
 10
0.0
 20
0.0
 30
0.0
  3
*U21
  1

  0
TEXT
  5
88F
  8
0
 62
     0
 10
-11619.684613664551
 20
3286.99191805077
 30
0.0
 40
40.0
  1
4000
  0
ENDBLK
  5
891
  8
0
  0
BLOCK
  8
0
  2
*U22
 70
     1
 10
0.0
 20
0.0
 30
0.0
  3
*U22
  1

  0
TEXT
  5
893
  8
0
 62
     0
 10
-11889.858597365779
 20
3177.7054818519341
 30
0.0
 40
40.0
  1
1000
  0
ENDBLK
  5
895
  8
0
  0
BLOCK
  8
0
  2
*U23
 70
     1
 10
0.0
 20
0.0
 30
0.0
  3
*U23
  1

  0
TEXT
  5
897
  8
0
 62
     0
 10
-12622.396114418991
 20
3178.6989943996809
 30
0.0
 40
40.0
  1
500
  0
ENDBLK
  5
899
  8
0
  0
BLOCK
  8
0
  2
*U24
 70
     1
 10
0.0
 20
0.0
 30
0.0
  3
*U24
  1

  0
TEXT
  5
89B
  8
0
 62
     0
 10
-13255.05982569661
 20
3179.1957506735548
 30
0.0
 40
40.0
  1
700
  0
ENDBLK
  5
89D
  8
0
  0
BLOCK
  8
0
  2
*U25
 70
     1
 10
0.0
 20
0.0
 30
0.0
  3
*U25
  1

  0
TEXT
  5
8A2
  8
0
 62
     0
 10
-11973.105040461791
 20
753.07762165667577
 30
0.0
 40
80.0
  1
50
  0
ENDBLK
  5
8A4
  8
0
  0
BLOCK
  8
0
  2
*U26
 70
     1
 10
0.0
 20
0.0
 30
0.0
  3
*U26
  1

  0
TEXT
  5
8A6
  8
0
 62
     0
 10
-9329.5539989513309
 20
1970.2720058563409
 30
0.0
 40
100.0
  1
1250.0002
 50
90.0
  0
ENDBLK
  5
8A8
  8
0
  0
BLOCK
  8
0
  2
*U27
 70
     1
 10
0.0
 20
0.0
 30
0.0
  3
*U27
  1

  0
TEXT
  5
8B3
  8
0
 62
     0
 10
-12071.106404718281
 20
754.33955890087782
 30
0.0
 40
100.0
  1
1000
  0
ENDBLK
  5
8B5
  8
0
  0
BLOCK
  8
0
  2
*U28
 70
     1
 10
0.0
 20
0.0
 30
0.0
  3
*U28
  1

  0
TEXT
  5
8C0
  8
0
 62
     0
 10
-11712.01067096332
 20
3379.7809925743568
 30
0.0
 40
100.0
  1
4065
  0
ENDBLK
  5
8C2
  8
0
  0
BLOCK
  8
0
  2
*U29
 70
     1
 10
0.0
 20
0.0
 30
0.0
  3
*U29
  1

  0
TEXT
  5
8C4
  8
0
 10
-11713.225792673669
 20
3380.7327177533248
 30
0.0
 40
100.0
  1
4000
  0
ENDBLK
  5
8C6
  8
0
  0
BLOCK
  8
0
  2
*U30
 70
     1
 10
0.0
 20
0.0
 30
0.0
  3
*U30
  1

  0
TEXT
  5
8E3
  8
0
 62
     0
 10
-13325.44863879347
 20
3147.9965618827491
 30
0.0
 40
100.0
  1
765
  0
ENDBLK
  5
8E5
  8
0
  0
BLOCK
  8
0
  2
*U31
 70
     1
 10
0.0
 20
0.0
 30
0.0
  3
*U31
  1

  0
TEXT
  5
8E7
  8
0
 10
-13328.14290370396
 20
3148.234831208048
 30
0.0
 40
100.0
  1
700
  0
ENDBLK
  5
8E9
  8
0
  0
BLOCK
  8
0
  2
*U32
 70
     1
 10
0.0
 20
0.0
 30
0.0
  3
*U32
  1

  0
TEXT
  5
8EB
  8
0
 62
     0
 10
-12773.885479845399
 20
987.6487841890945
 30
0.0
 40
100.0
  1
7
 50
90.0
  0
ENDBLK
  5
8ED
  8
0
  0
ENDSEC
  0
SECTION
  2
ENTITIES
  0
TEXT
  5
BA
  8
AUX
 10
-13690.399614
 20
-2349.3810880000001
 30
0.0
 40
150.0
  1

  0
TEXT
  5
BB
  8
AUX
 10
-13366.623453
 20
-5131.436068
 30
0.0
 40
70.0
  1

  0
TEXT
  5
BC
  8
AUX
 10
-13366.623453
 20
-5341.436068
 30
0.0
 40
70.0
  1

  0
TEXT
  5
BD
  8
AUX
 10
-13366.623453
 20
-5971.436068
 30
0.0
 40
70.0
  1

  0
LINE
  5
BE
  8
0
 10
-9825.8612488787403
 20
2929.6173257458399
 30
0.0
 11
-11325.861325878741
 21
2929.6173257458399
 31
0.0
  0
LINE
  5
BF
  8
0
 10
-9825.8612488787403
 20
2879.6173257458399
 30
0.0
 11
-11325.861325878741
 21
2879.6173257458399
 31
0.0
  0
LINE
  5
C0
  8
0
 10
-13080.861325878741
 20
2929.6173257458399
 30
0.0
 11
-13590.861326878739
 21
2929.6173257458399
 31
0.0
  0
LINE
  5
C1
  8
0
 10
-13590.861326878739
 20
2929.6173257458399
 30
0.0
 11
-13080.861325878741
 21
2929.6173257458399
 31
0.0
  0
LINE
  5
C2
  8
0
 10
-12825.861325878741
 20
2929.6173257458399
 30
0.0
 11
-13590.861326878739
 21
2929.6173257458399
 31
0.0
  0
LINE
  5
C3
  8
0
 10
-12825.861325878741
 20
2879.6173257458399
 30
0.0
 11
-13590.861326878739
 21
2879.6173257458399
 31
0.0
  0
LINE
  5
C4
  8
0
 10
-13590.861326878739
 20
2929.6173257458399
 30
0.0
 11
-13590.861326878739
 21
2879.6173257458399
 31
0.0
  0
LINE
  5
C5
  8
0
 10
-12825.861325878741
 20
2929.6173257458399
 30
0.0
 11
-12325.861325878741
 21
2929.6173257458399
 31
0.0
  0
LINE
  5
C6
  8
0
 10
-12825.861325878741
 20
2879.6173257458399
 30
0.0
 11
-12325.861325878741
 21
2879.6173257458399
 31
0.0
  0
LINE
  5
C7
  8
0
 10
-12825.861325878741
 20
2879.6173257458399
 30
0.0
 11
-12825.861325878741
 21
2929.6173257458399
 31
0.0
  0
LINE
  5
C8
  8
0
 10
-12825.861325878741
 20
2879.6173257458399
 30
0.0
 11
-12825.861325878741
 21
2929.6173257458399
 31
0.0
  0
LINE
  5
C9
  8
0
 10
-12325.861325878741
 20
2929.6173257458399
 30
0.0
 11
-12325.861325878741
 21
2879.6173257458399
 31
0.0
  0
LINE
  5
CA
  8
0
 10
-11325.861325878741
 20
2929.6173257458399
 30
0.0
 11
-12325.861325878741
 21
2929.6173257458399
 31
0.0
  0
LINE
  5
CB
  8
0
 10
-11325.861325878741
 20
2879.6173257458399
 30
0.0
 11
-12325.861325878741
 21
2879.6173257458399
 31
0.0
  0
LINE
  5
CC
  8
0
 10
-12325.861325878741
 20
2929.6173257458399
 30
0.0
 11
-12325.861325878741
 21
2879.6173257458399
 31
0.0
  0
LINE
  5
CD
  8
0
 10
-11325.861325878741
 20
2879.6173257458399
 30
0.0
 11
-11325.861325878741
 21
2929.6172717458398
 31
0.0
  0
LINE
  5
CE
  8
0
 10
-11325.861325878741
 20
2879.6173257458399
 30
0.0
 11
-11325.861325878741
 21
2929.6173257458399
 31
0.0
  0
LINE
  5
CF
  8
0
 10
-9825.8612488787403
 20
2929.6173257458399
 30
0.0
 11
-9825.8612488787403
 21
2879.6173257458399
 31
0.0
  0
LINE
  5
D0
  8
0
 10
-9525.8612428787383
 20
2929.6172637458399
 30
0.0
 11
-9825.8612488787403
 21
2929.6172637458399
 31
0.0
  0
LINE
  5
D1
  8
0
 10
-9525.8612428787383
 20
2879.617263745839
 30
0.0
 11
-9825.8612488787403
 21
2879.617263745839
 31
0.0
  0
LINE
  5
D2
  8
0
 10
-9825.8612488787403
 20
2879.617263745839
 30
0.0
 11
-9825.8612488787403
 21
2929.6173257458399
 31
0.0
  0
LINE
  5
D3
  8
0
 10
-9525.8612428787383
 20
2879.617263745839
 30
0.0
 11
-9525.8612428787383
 21
2929.6172637458399
 31
0.0
  0
LINE
  5
D4
  8
0
 10
-13290.861320878739
 20
2879.617263745839
 30
0.0
 11
-13590.861326878739
 21
2879.617263745839
 31
0.0
  0
LINE
  5
D5
  8
0
 10
-13290.861320878739
 20
2829.6172637458399
 30
0.0
 11
-13590.861326878739
 21
2829.6172637458399
 31
0.0
  0
LINE
  5
D6
  8
0
 10
-13590.861326878739
 20
2829.6172637458399
 30
0.0
 11
-13590.861326878739
 21
2879.6173257458399
 31
0.0
  0
LINE
  5
D7
  8
0
 10
-13290.861320878739
 20
2829.6172637458399
 30
0.0
 11
-13290.861320878739
 21
2879.617263745839
 31
0.0
  0
LINE
  5
D8
  8
0
 10
-12290.861320878739
 20
2879.617263745839
 30
0.0
 11
-13290.861320878739
 21
2879.617263745839
 31
0.0
  0
LINE
  5
D9
  8
0
 10
-12290.861320878739
 20
2829.6172637458399
 30
0.0
 11
-13290.861320878739
 21
2829.6172637458399
 31
0.0
  0
LINE
  5
DA
  8
0
 10
-13290.861320878739
 20
2879.617263745839
 30
0.0
 11
-13290.861320878739
 21
2829.6172637458399
 31
0.0
  0
LINE
  5
DB
  8
0
 10
-12290.86132087873
 20
2829.6172637458399
 30
0.0
 11
-12290.861320878739
 21
2879.617263745839
 31
0.0
  0
LINE
  5
DC
  8
0
 10
-10790.86124387874
 20
2879.617263745839
 30
0.0
 11
-12290.861320878739
 21
2879.617263745839
 31
0.0
  0
LINE
  5
DD
  8
0
 10
-10790.86124387874
 20
2829.6172637458399
 30
0.0
 11
-12290.861320878739
 21
2829.6172637458399
 31
0.0
  0
LINE
  5
DE
  8
0
 10
-12290.861320878739
 20
2829.6172637458399
 30
0.0
 11
-12290.861320878739
 21
2879.6172097458398
 31
0.0
  0
LINE
  5
DF
  8
0
 10
-10790.86124387874
 20
2879.617263745839
 30
0.0
 11
-10790.86124387874
 21
2829.6172637458399
 31
0.0
  0
LINE
  5
E0
  8
0
 10
-10790.86124387874
 20
2879.617263745839
 30
0.0
 11
-10290.86124387874
 21
2879.617263745839
 31
0.0
  0
LINE
  5
E1
  8
0
 10
-10790.86124387874
 20
2829.6172637458399
 30
0.0
 11
-10290.86124387874
 21
2829.6172637458399
 31
0.0
  0
LINE
  5
E2
  8
0
 10
-10790.86124387873
 20
2829.6172637458399
 30
0.0
 11
-10790.86124387874
 21
2879.617263745839
 31
0.0
  0
LINE
  5
E3
  8
0
 10
-10290.86124387874
 20
2879.617263745839
 30
0.0
 11
-10290.86124387874
 21
2829.6172637458399
 31
0.0
  0
LINE
  5
E4
  8
0
 10
-9780.8612428787383
 20
2879.617263745839
 30
0.0
 11
-10290.86124387874
 21
2879.617263745839
 31
0.0
  0
LINE
  5
E5
  8
0
 10
-10290.86124387874
 20
2879.617263745839
 30
0.0
 11
-9780.8612428787383
 21
2879.617263745839
 31
0.0
  0
LINE
  5
E6
  8
0
 10
-9525.8612428787383
 20
2879.617263745839
 30
0.0
 11
-10290.86124387874
 21
2879.617263745839
 31
0.0
  0
LINE
  5
E7
  8
0
 10
-9525.8612428787383
 20
2829.6172637458399
 30
0.0
 11
-10290.86124387874
 21
2829.6172637458399
 31
0.0
  0
LINE
  5
E8
  8
0
 10
-10290.86124387874
 20
2879.617263745839
 30
0.0
 11
-10290.86124387874
 21
2829.6172637458399
 31
0.0
  0
LINE
  5
E9
  8
0
 10
-9525.8612428787383
 20
2829.6172637458399
 30
0.0
 11
-9525.8612428787383
 21
2879.617263745839
 31
0.0
  0
LINE
  5
EA
  8
0
 10
-13590.861326878739
 20
2829.6172637458399
 30
0.0
 11
-13090.86132687873
 21
2829.6172637458399
 31
0.0
  0
LINE
  5
EB
  8
0
 10
-13590.861326878739
 20
2779.617263745839
 30
0.0
 11
-13090.86132687873
 21
2779.617263745839
 31
0.0
  0
LINE
  5
EC
  8
0
 10
-13590.861326878739
 20
2779.617263745839
 30
0.0
 11
-13590.861326878739
 21
2829.6172637458399
 31
0.0
  0
LINE
  5
ED
  8
0
 10
-13090.86132687873
 20
2829.6172637458399
 30
0.0
 11
-13090.86132687873
 21
2779.617263745839
 31
0.0
  0
LINE
  5
EE
  8
0
 10
-12090.861326878739
 20
2829.6172637458399
 30
0.0
 11
-13090.86132687873
 21
2829.6172637458399
 31
0.0
  0
LINE
  5
EF
  8
0
 10
-12090.861326878739
 20
2779.617263745839
 30
0.0
 11
-13090.86132687873
 21
2779.617263745839
 31
0.0
  0
LINE
  5
F0
  8
0
 10
-13090.86132687873
 20
2829.6172637458399
 30
0.0
 11
-13090.86132687873
 21
2779.617263745839
 31
0.0
  0
LINE
  5
F1
  8
0
 10
-12090.861326878739
 20
2779.617263745839
 30
0.0
 11
-12090.861326878739
 21
2829.6172637458399
 31
0.0
  0
LINE
  5
F2
  8
0
 10
-11790.861320878739
 20
2829.6172017458389
 30
0.0
 11
-12090.861326878739
 21
2829.6172017458389
 31
0.0
  0
LINE
  5
F3
  8
0
 10
-11790.861320878739
 20
2779.6172017458389
 30
0.0
 11
-12090.861326878739
 21
2779.6172017458389
 31
0.0
  0
LINE
  5
F4
  8
0
 10
-12090.861326878739
 20
2779.6172017458389
 30
0.0
 11
-12090.861326878739
 21
2829.6172637458399
 31
0.0
  0
LINE
  5
F5
  8
0
 10
-11790.861320878739
 20
2779.6172017458389
 30
0.0
 11
-11790.861320878739
 21
2829.6172017458389
 31
0.0
  0
LINE
  5
F6
  8
0
 10
-11280.861319878741
 20
2829.6172017458389
 30
0.0
 11
-11790.861320878739
 21
2829.6172017458389
 31
0.0
  0
LINE
  5
F7
  8
0
 10
-11790.861320878739
 20
2829.6172017458389
 30
0.0
 11
-11280.861319878741
 21
2829.6172017458389
 31
0.0
  0
LINE
  5
F8
  8
0
 10
-11025.861319878741
 20
2829.6172017458389
 30
0.0
 11
-11790.861320878739
 21
2829.6172017458389
 31
0.0
  0
LINE
  5
F9
  8
0
 10
-11025.861319878741
 20
2779.6172017458389
 30
0.0
 11
-11790.861320878739
 21
2779.6172017458389
 31
0.0
  0
LINE
  5
FA
  8
0
 10
-11790.861320878739
 20
2829.6172017458389
 30
0.0
 11
-11790.861320878739
 21
2779.6172017458389
 31
0.0
  0
LINE
  5
FB
  8
0
 10
-11025.861319878741
 20
2779.6172017458389
 30
0.0
 11
-11025.861319878741
 21
2829.6172017458389
 31
0.0
  0
LINE
  5
FC
  8
0
 10
-9525.8612428787383
 20
2829.6172017458389
 30
0.0
 11
-11025.861319878741
 21
2829.6172017458389
 31
0.0
  0
LINE
  5
FD
  8
0
 10
-9525.8612428787383
 20
2779.6172017458389
 30
0.0
 11
-11025.861319878741
 21
2779.6172017458389
 31
0.0
  0
LINE
  5
FE
  8
0
 10
-11025.861319878741
 20
2779.6172017458389
 30
0.0
 11
-11025.861319878741
 21
2829.6171477458388
 31
0.0
  0
LINE
  5
FF
  8
0
 10
-9525.8612428787383
 20
2829.6172017458389
 30
0.0
 11
-9525.8612428787383
 21
2779.6172017458389
 31
0.0
  0
LINE
  5
100
  8
0
 10
-12590.86132687873
 20
2779.617263745839
 30
0.0
 11
-13590.861326878739
 21
2779.617263745839
 31
0.0
  0
LINE
  5
101
  8
0
 10
-12590.86132687873
 20
2729.6172637458399
 30
0.0
 11
-13590.861326878739
 21
2729.6172637458399
 31
0.0
  0
LINE
  5
102
  8
0
 10
-13590.861326878739
 20
2779.617263745839
 30
0.0
 11
-13590.861326878739
 21
2729.6172637458399
 31
0.0
  0
LINE
  5
103
  8
0
 10
-12590.86132687873
 20
2729.6172637458399
 30
0.0
 11
-12590.86132687873
 21
2779.617263745839
 31
0.0
  0
LINE
  5
104
  8
0
 10
-11090.861249878741
 20
2779.61731774584
 30
0.0
 11
-12590.86132687873
 21
2779.61731774584
 31
0.0
  0
LINE
  5
105
  8
0
 10
-11090.861249878741
 20
2729.61731774584
 30
0.0
 11
-12590.86132687873
 21
2729.61731774584
 31
0.0
  0
LINE
  5
106
  8
0
 10
-12590.86132687873
 20
2729.61731774584
 30
0.0
 11
-12590.86132687873
 21
2779.617263745839
 31
0.0
  0
LINE
  5
107
  8
0
 10
-11090.861249878741
 20
2779.61731774584
 30
0.0
 11
-11090.861249878741
 21
2729.61731774584
 31
0.0
  0
LINE
  5
108
  8
0
 10
-10580.861248878729
 20
2779.61731774584
 30
0.0
 11
-11090.861249878741
 21
2779.61731774584
 31
0.0
  0
LINE
  5
109
  8
0
 10
-11090.861249878741
 20
2779.61731774584
 30
0.0
 11
-10580.861248878729
 21
2779.61731774584
 31
0.0
  0
LINE
  5
10A
  8
0
 10
-10325.86124887874
 20
2779.61731774584
 30
0.0
 11
-11090.861249878741
 21
2779.61731774584
 31
0.0
  0
LINE
  5
10B
  8
0
 10
-10325.86124887874
 20
2729.61731774584
 30
0.0
 11
-11090.861249878741
 21
2729.61731774584
 31
0.0
  0
LINE
  5
10C
  8
0
 10
-11090.861249878741
 20
2779.61731774584
 30
0.0
 11
-11090.861249878741
 21
2729.61731774584
 31
0.0
  0
LINE
  5
10D
  8
0
 10
-10325.86124887874
 20
2729.61731774584
 30
0.0
 11
-10325.86124887874
 21
2779.61731774584
 31
0.0
  0
LINE
  5
10E
  8
0
 10
-10025.86124287874
 20
2779.617255745839
 30
0.0
 11
-10325.86124887874
 21
2779.617255745839
 31
0.0
  0
LINE
  5
10F
  8
0
 10
-10025.86124287874
 20
2729.617255745839
 30
0.0
 11
-10325.86124887874
 21
2729.617255745839
 31
0.0
  0
LINE
  5
110
  8
0
 10
-10325.86124887874
 20
2729.617255745839
 30
0.0
 11
-10325.86124887874
 21
2779.61731774584
 31
0.0
  0
LINE
  5
111
  8
0
 10
-10025.86124287874
 20
2729.617255745839
 30
0.0
 11
-10025.86124287874
 21
2779.617255745839
 31
0.0
  0
LINE
  5
112
  8
0
 10
-10025.86124287874
 20
2779.617255745839
 30
0.0
 11
-9525.8612428787383
 21
2779.617255745839
 31
0.0
  0
LINE
  5
113
  8
0
 10
-10025.86124287874
 20
2729.617255745839
 30
0.0
 11
-9525.8612428787383
 21
2729.617255745839
 31
0.0
  0
LINE
  5
114
  8
0
 10
-10025.861242878729
 20
2729.617255745839
 30
0.0
 11
-10025.86124287874
 21
2779.617255745839
 31
0.0
  0
LINE
  5
115
  8
0
 10
-9525.8612428787383
 20
2779.617255745839
 30
0.0
 11
-9525.8612428787383
 21
2729.617255745839
 31
0.0
  0
LINE
  5
116
  8
0
 10
-13290.86132087873
 20
2729.6172017458389
 30
0.0
 11
-13590.861326878739
 21
2729.6172017458389
 31
0.0
  0
LINE
  5
117
  8
0
 10
-13290.86132087873
 20
2679.6172017458389
 30
0.0
 11
-13590.861326878739
 21
2679.6172017458389
 31
0.0
  0
LINE
  5
118
  8
0
 10
-13590.861326878739
 20
2679.6172017458389
 30
0.0
 11
-13590.861326878739
 21
2729.6172637458399
 31
0.0
  0
LINE
  5
119
  8
0
 10
-13290.86132087873
 20
2679.6172017458389
 30
0.0
 11
-13290.86132087873
 21
2729.6172017458389
 31
0.0
  0
LINE
  5
11A
  8
0
 10
-12780.861319878741
 20
2729.6172017458389
 30
0.0
 11
-13290.86132087873
 21
2729.6172017458389
 31
0.0
  0
LINE
  5
11B
  8
0
 10
-13290.86132087873
 20
2729.6172017458389
 30
0.0
 11
-12780.861319878741
 21
2729.6172017458389
 31
0.0
  0
LINE
  5
11C
  8
0
 10
-12525.861319878741
 20
2729.6172017458389
 30
0.0
 11
-13290.86132087873
 21
2729.6172017458389
 31
0.0
  0
LINE
  5
11D
  8
0
 10
-12525.861319878741
 20
2679.6172017458389
 30
0.0
 11
-13290.86132087873
 21
2679.6172017458389
 31
0.0
  0
LINE
  5
11E
  8
0
 10
-13290.86132087873
 20
2729.6172017458389
 30
0.0
 11
-13290.86132087873
 21
2679.6172017458389
 31
0.0
  0
LINE
  5
11F
  8
0
 10
-12525.861319878741
 20
2679.6172017458389
 30
0.0
 11
-12525.861319878741
 21
2729.6172017458389
 31
0.0
  0
LINE
  5
120
  8
0
 10
-12525.861319878741
 20
2729.6172017458389
 30
0.0
 11
-12025.861319878741
 21
2729.6172017458389
 31
0.0
  0
LINE
  5
121
  8
0
 10
-12525.861319878741
 20
2679.6172017458389
 30
0.0
 11
-12025.861319878741
 21
2679.6172017458389
 31
0.0
  0
LINE
  5
122
  8
0
 10
-12525.86131987873
 20
2679.6172017458389
 30
0.0
 11
-12525.861319878741
 21
2729.6172017458389
 31
0.0
  0
LINE
  5
123
  8
0
 10
-12025.861319878741
 20
2729.6172017458389
 30
0.0
 11
-12025.861319878741
 21
2679.6172017458389
 31
0.0
  0
LINE
  5
124
  8
0
 10
-10525.86124287874
 20
2729.6172017458389
 30
0.0
 11
-12025.861319878741
 21
2729.6172017458389
 31
0.0
  0
LINE
  5
125
  8
0
 10
-10525.86124287874
 20
2679.6172017458389
 30
0.0
 11
-12025.861319878741
 21
2679.6172017458389
 31
0.0
  0
LINE
  5
126
  8
0
 10
-12025.861319878741
 20
2679.6172017458389
 30
0.0
 11
-12025.861319878741
 21
2729.6171477458388
 31
0.0
  0
LINE
  5
127
  8
0
 10
-10525.86124287874
 20
2729.6172017458389
 30
0.0
 11
-10525.86124287874
 21
2679.6172017458389
 31
0.0
  0
LINE
  5
128
  8
0
 10
-9525.8612428787383
 20
2729.6172017458389
 30
0.0
 11
-10525.86124287874
 21
2729.6172017458389
 31
0.0
  0
LINE
  5
129
  8
0
 10
-9525.8612428787383
 20
2679.6172017458389
 30
0.0
 11
-10525.86124287874
 21
2679.6172017458389
 31
0.0
  0
LINE
  5
12A
  8
0
 10
-10525.86124287874
 20
2729.6172017458389
 30
0.0
 11
-10525.86124287874
 21
2679.6172017458389
 31
0.0
  0
LINE
  5
12B
  8
0
 10
-9525.8612428787346
 20
2679.6172017458389
 30
0.0
 11
-9525.8612428787383
 21
2729.6172017458389
 31
0.0
  0
LINE
  5
12C
  8
0
 10
-13080.861325878741
 20
2679.6172017458389
 30
0.0
 11
-13590.861326878739
 21
2679.6172017458389
 31
0.0
  0
LINE
  5
12D
  8
0
 10
-13590.861326878739
 20
2679.6172017458389
 30
0.0
 11
-13080.861325878741
 21
2679.6172017458389
 31
0.0
  0
LINE
  5
12E
  8
0
 10
-12825.861325878741
 20
2679.6172017458389
 30
0.0
 11
-13590.861326878739
 21
2679.6172017458389
 31
0.0
  0
LINE
  5
12F
  8
0
 10
-12825.861325878741
 20
2629.6172017458389
 30
0.0
 11
-13590.861326878739
 21
2629.6172017458389
 31
0.0
  0
LINE
  5
130
  8
0
 10
-13590.861326878739
 20
2679.6172017458389
 30
0.0
 11
-13590.861326878739
 21
2629.6172017458389
 31
0.0
  0
LINE
  5
131
  8
0
 10
-12825.861325878741
 20
2629.6172017458389
 30
0.0
 11
-12825.861325878741
 21
2679.6172017458389
 31
0.0
  0
LINE
  5
132
  8
0
 10
-12825.861325878741
 20
2679.6172017458389
 30
0.0
 11
-12325.86132587873
 21
2679.6172017458389
 31
0.0
  0
LINE
  5
133
  8
0
 10
-12825.861325878741
 20
2629.6172017458389
 30
0.0
 11
-12325.86132587873
 21
2629.6172017458389
 31
0.0
  0
LINE
  5
134
  8
0
 10
-12825.861325878741
 20
2629.6172017458389
 30
0.0
 11
-12825.861325878741
 21
2679.6172017458389
 31
0.0
  0
LINE
  5
135
  8
0
 10
-12325.86132587873
 20
2679.6172017458389
 30
0.0
 11
-12325.86132587873
 21
2629.6172017458389
 31
0.0
  0
LINE
  5
136
  8
0
 10
-10825.861248878729
 20
2679.6172017458389
 30
0.0
 11
-12325.86132587873
 21
2679.6172017458389
 31
0.0
  0
LINE
  5
137
  8
0
 10
-10825.861248878729
 20
2629.6172017458389
 30
0.0
 11
-12325.86132587873
 21
2629.6172017458389
 31
0.0
  0
LINE
  5
138
  8
0
 10
-12325.86132587873
 20
2629.6172017458389
 30
0.0
 11
-12325.86132587873
 21
2679.6171477458388
 31
0.0
  0
LINE
  5
139
  8
0
 10
-10825.861248878729
 20
2679.6172017458389
 30
0.0
 11
-10825.861248878729
 21
2629.6172017458389
 31
0.0
  0
LINE
  5
13A
  8
0
 10
-9825.8612488787367
 20
2679.6172017458389
 30
0.0
 11
-10825.861248878729
 21
2679.6172017458389
 31
0.0
  0
LINE
  5
13B
  8
0
 10
-9825.8612488787367
 20
2629.6172017458389
 30
0.0
 11
-10825.861248878729
 21
2629.6172017458389
 31
0.0
  0
LINE
  5
13C
  8
0
 10
-10825.861248878729
 20
2679.6172017458389
 30
0.0
 11
-10825.861248878729
 21
2629.6172017458389
 31
0.0
  0
LINE
  5
13D
  8
0
 10
-9825.8612488787367
 20
2629.6172017458389
 30
0.0
 11
-9825.8612488787367
 21
2679.6172017458389
 31
0.0
  0
LINE
  5
13E
  8
0
 10
-9525.8612428787383
 20
2679.6172017458389
 30
0.0
 11
-9825.8612488787367
 21
2679.6172017458389
 31
0.0
  0
LINE
  5
13F
  8
0
 10
-9525.8612428787383
 20
2629.6172017458389
 30
0.0
 11
-9825.8612488787367
 21
2629.6172017458389
 31
0.0
  0
LINE
  5
140
  8
0
 10
-9825.8612488787367
 20
2629.6172017458389
 30
0.0
 11
-9825.8612488787367
 21
2679.6172637458399
 31
0.0
  0
LINE
  5
141
  8
0
 10
-9525.8612428787383
 20
2629.6172017458389
 30
0.0
 11
-9525.8612428787383
 21
2679.6172017458389
 31
0.0
  0
LINE
  5
142
  8
0
 10
-12090.86124987873
 20
2629.617255745839
 30
0.0
 11
-13590.861326878739
 21
2629.617255745839
 31
0.0
  0
LINE
  5
143
  8
0
 10
-12090.86124987873
 20
2579.617255745839
 30
0.0
 11
-13590.861326878739
 21
2579.617255745839
 31
0.0
  0
LINE
  5
144
  8
0
 10
-13590.861326878739
 20
2579.617255745839
 30
0.0
 11
-13590.861326878739
 21
2629.6172017458389
 31
0.0
  0
LINE
  5
145
  8
0
 10
-12090.86124987873
 20
2629.617255745839
 30
0.0
 11
-12090.86124987873
 21
2579.617255745839
 31
0.0
  0
LINE
  5
146
  8
0
 10
-11090.861249878741
 20
2629.617255745839
 30
0.0
 11
-12090.86124987873
 21
2629.617255745839
 31
0.0
  0
LINE
  5
147
  8
0
 10
-11090.861249878741
 20
2579.617255745839
 30
0.0
 11
-12090.86124987873
 21
2579.617255745839
 31
0.0
  0
LINE
  5
148
  8
0
 10
-12090.86124987873
 20
2629.617255745839
 30
0.0
 11
-12090.86124987873
 21
2579.617255745839
 31
0.0
  0
LINE
  5
149
  8
0
 10
-11090.86124987873
 20
2579.617255745839
 30
0.0
 11
-11090.861249878741
 21
2629.617255745839
 31
0.0
  0
LINE
  5
14A
  8
0
 10
-10790.86124387873
 20
2629.6171937458389
 30
0.0
 11
-11090.861249878741
 21
2629.6171937458389
 31
0.0
  0
LINE
  5
14B
  8
0
 10
-10790.86124387873
 20
2579.6171937458389
 30
0.0
 11
-11090.861249878741
 21
2579.6171937458389
 31
0.0
  0
LINE
  5
14C
  8
0
 10
-11090.861249878741
 20
2579.6171937458389
 30
0.0
 11
-11090.861249878741
 21
2629.617255745839
 31
0.0
  0
LINE
  5
14D
  8
0
 10
-10790.86124387873
 20
2579.6171937458389
 30
0.0
 11
-10790.86124387873
 21
2629.6171937458389
 31
0.0
  0
LINE
  5
14E
  8
0
 10
-10790.86124387873
 20
2629.6171937458389
 30
0.0
 11
-10290.86124387873
 21
2629.6171937458389
 31
0.0
  0
LINE
  5
14F
  8
0
 10
-10790.86124387873
 20
2579.6171937458389
 30
0.0
 11
-10290.86124387873
 21
2579.6171937458389
 31
0.0
  0
LINE
  5
150
  8
0
 10
-10790.86124387873
 20
2579.6171937458389
 30
0.0
 11
-10790.86124387873
 21
2629.6171937458389
 31
0.0
  0
LINE
  5
151
  8
0
 10
-10290.86124387873
 20
2629.6171937458389
 30
0.0
 11
-10290.86124387873
 21
2579.6171937458389
 31
0.0
  0
LINE
  5
152
  8
0
 10
-9780.8612428787383
 20
2629.6171937458389
 30
0.0
 11
-10290.86124387873
 21
2629.6171937458389
 31
0.0
  0
LINE
  5
153
  8
0
 10
-10290.86124387873
 20
2629.6171937458389
 30
0.0
 11
-9780.8612428787383
 21
2629.6171937458389
 31
0.0
  0
LINE
  5
154
  8
0
 10
-9525.8612428787383
 20
2629.6171937458389
 30
0.0
 11
-10290.86124387873
 21
2629.6171937458389
 31
0.0
  0
LINE
  5
155
  8
0
 10
-9525.8612428787383
 20
2579.6171937458389
 30
0.0
 11
-10290.86124387873
 21
2579.6171937458389
 31
0.0
  0
LINE
  5
156
  8
0
 10
-10290.86124387873
 20
2629.6171937458389
 30
0.0
 11
-10290.86124387873
 21
2579.6171937458389
 31
0.0
  0
LINE
  5
157
  8
0
 10
-9525.8612428787383
 20
2579.6171937458389
 30
0.0
 11
-9525.8612428787383
 21
2629.6171937458389
 31
0.0
  0
LINE
  5
158
  8
0
 10
-13590.861326878739
 20
2579.617255745839
 30
0.0
 11
-13090.86132687873
 21
2579.617255745839
 31
0.0
  0
LINE
  5
159
  8
0
 10
-13590.861326878739
 20
2529.617255745839
 30
0.0
 11
-13090.86132687873
 21
2529.617255745839
 31
0.0
  0
LINE
  5
15A
  8
0
 10
-13590.86132687873
 20
2529.617255745839
 30
0.0
 11
-13590.861326878739
 21
2579.617255745839
 31
0.0
  0
LINE
  5
15B
  8
0
 10
-13090.86132687873
 20
2579.617255745839
 30
0.0
 11
-13090.86132687873
 21
2529.617255745839
 31
0.0
  0
LINE
  5
15C
  8
0
 10
-12790.86132087873
 20
2579.6171937458389
 30
0.0
 11
-13090.86132687873
 21
2579.6171937458389
 31
0.0
  0
LINE
  5
15D
  8
0
 10
-12790.86132087873
 20
2529.6171937458389
 30
0.0
 11
-13090.86132687873
 21
2529.6171937458389
 31
0.0
  0
LINE
  5
15E
  8
0
 10
-13090.86132687873
 20
2529.6171937458389
 30
0.0
 11
-13090.86132687873
 21
2579.617255745839
 31
0.0
  0
LINE
  5
15F
  8
0
 10
-12790.86132087873
 20
2529.6171937458389
 30
0.0
 11
-12790.86132087873
 21
2579.6171937458389
 31
0.0
  0
LINE
  5
160
  8
0
 10
-11790.86132087873
 20
2579.6171937458389
 30
0.0
 11
-12790.86132087873
 21
2579.6171937458389
 31
0.0
  0
LINE
  5
161
  8
0
 10
-11790.86132087873
 20
2529.6171937458389
 30
0.0
 11
-12790.86132087873
 21
2529.6171937458389
 31
0.0
  0
LINE
  5
162
  8
0
 10
-12790.86132087873
 20
2579.6171937458389
 30
0.0
 11
-12790.86132087873
 21
2529.6171937458389
 31
0.0
  0
LINE
  5
163
  8
0
 10
-11790.86132087873
 20
2529.6171937458389
 30
0.0
 11
-11790.86132087873
 21
2579.6171937458389
 31
0.0
  0
LINE
  5
164
  8
0
 10
-11280.861319878741
 20
2579.6171937458389
 30
0.0
 11
-11790.86132087873
 21
2579.6171937458389
 31
0.0
  0
LINE
  5
165
  8
0
 10
-11790.86132087873
 20
2579.6171937458389
 30
0.0
 11
-11280.861319878741
 21
2579.6171937458389
 31
0.0
  0
LINE
  5
166
  8
0
 10
-11025.861319878741
 20
2579.6171937458389
 30
0.0
 11
-11790.86132087873
 21
2579.6171937458389
 31
0.0
  0
LINE
  5
167
  8
0
 10
-11025.861319878741
 20
2529.6171937458389
 30
0.0
 11
-11790.86132087873
 21
2529.6171937458389
 31
0.0
  0
LINE
  5
168
  8
0
 10
-11790.86132087873
 20
2579.6171937458389
 30
0.0
 11
-11790.86132087873
 21
2529.6171937458389
 31
0.0
  0
LINE
  5
169
  8
0
 10
-11025.861319878741
 20
2529.6171937458389
 30
0.0
 11
-11025.861319878741
 21
2579.6171937458389
 31
0.0
  0
LINE
  5
16A
  8
0
 10
-9525.8612428787383
 20
2579.6171937458389
 30
0.0
 11
-11025.861319878741
 21
2579.6171937458389
 31
0.0
  0
LINE
  5
16B
  8
0
 10
-9525.8612428787383
 20
2529.6171937458389
 30
0.0
 11
-11025.861319878741
 21
2529.6171937458389
 31
0.0
  0
LINE
  5
16C
  8
0
 10
-11025.861319878741
 20
2529.6171937458389
 30
0.0
 11
-11025.861319878741
 21
2579.6171397458388
 31
0.0
  0
LINE
  5
16D
  8
0
 10
-9525.8612428787383
 20
2579.6171937458389
 30
0.0
 11
-9525.8612428787383
 21
2529.6171937458389
 31
0.0
  0
LINE
  5
16E
  8
0
 10
-12590.86132687873
 20
2529.617255745839
 30
0.0
 11
-13590.86132687873
 21
2529.617255745839
 31
0.0
  0
LINE
  5
16F
  8
0
 10
-12590.86132687873
 20
2479.617255745839
 30
0.0
 11
-13590.86132687873
 21
2479.617255745839
 31
0.0
  0
LINE
  5
170
  8
0
 10
-13590.86132687873
 20
2529.617255745839
 30
0.0
 11
-13590.86132687873
 21
2479.617255745839
 31
0.0
  0
LINE
  5
171
  8
0
 10
-12590.86132687873
 20
2479.617255745839
 30
0.0
 11
-12590.86132687873
 21
2529.617255745839
 31
0.0
  0
LINE
  5
172
  8
0
 10
-11090.86124987873
 20
2529.617255745839
 30
0.0
 11
-12590.86132687873
 21
2529.617255745839
 31
0.0
  0
LINE
  5
173
  8
0
 10
-11090.86124987873
 20
2479.617255745839
 30
0.0
 11
-12590.86132687873
 21
2479.617255745839
 31
0.0
  0
LINE
  5
174
  8
0
 10
-12590.86132687873
 20
2479.617255745839
 30
0.0
 11
-12590.86132687873
 21
2529.6172017458389
 31
0.0
  0
LINE
  5
175
  8
0
 10
-11090.86124987873
 20
2529.617255745839
 30
0.0
 11
-11090.86124987873
 21
2479.617255745839
 31
0.0
  0
LINE
  5
176
  8
0
 10
-10580.861248878729
 20
2529.617255745839
 30
0.0
 11
-11090.86124987873
 21
2529.617255745839
 31
0.0
  0
LINE
  5
177
  8
0
 10
-11090.86124987873
 20
2529.617255745839
 30
0.0
 11
-10580.861248878729
 21
2529.617255745839
 31
0.0
  0
LINE
  5
178
  8
0
 10
-10325.86124887874
 20
2529.617255745839
 30
0.0
 11
-11090.86124987873
 21
2529.617255745839
 31
0.0
  0
LINE
  5
179
  8
0
 10
-10325.86124887874
 20
2479.617255745839
 30
0.0
 11
-11090.86124987873
 21
2479.617255745839
 31
0.0
  0
LINE
  5
17A
  8
0
 10
-11090.86124987873
 20
2529.617255745839
 30
0.0
 11
-11090.86124987873
 21
2479.617255745839
 31
0.0
  0
LINE
  5
17B
  8
0
 10
-10325.86124887874
 20
2479.617255745839
 30
0.0
 11
-10325.86124887874
 21
2529.617255745839
 31
0.0
  0
LINE
  5
17C
  8
0
 10
-10025.861242878729
 20
2529.6171937458389
 30
0.0
 11
-10325.86124887874
 21
2529.6171937458389
 31
0.0
  0
LINE
  5
17D
  8
0
 10
-10025.861242878729
 20
2479.6171937458389
 30
0.0
 11
-10325.86124887874
 21
2479.6171937458389
 31
0.0
  0
LINE
  5
17E
  8
0
 10
-10325.86124887874
 20
2479.6171937458389
 30
0.0
 11
-10325.86124887874
 21
2529.617255745839
 31
0.0
  0
LINE
  5
17F
  8
0
 10
-10025.861242878729
 20
2479.6171937458389
 30
0.0
 11
-10025.861242878729
 21
2529.6171937458389
 31
0.0
  0
LINE
  5
180
  8
0
 10
-10025.861242878729
 20
2529.6171937458389
 30
0.0
 11
-9525.8612428787346
 21
2529.6171937458389
 31
0.0
  0
LINE
  5
181
  8
0
 10
-10025.861242878729
 20
2479.6171937458389
 30
0.0
 11
-9525.8612428787346
 21
2479.6171937458389
 31
0.0
  0
LINE
  5
182
  8
0
 10
-10025.861242878729
 20
2479.6171937458389
 30
0.0
 11
-10025.861242878729
 21
2529.6171937458389
 31
0.0
  0
LINE
  5
183
  8
0
 10
-9525.8612428787346
 20
2529.6171937458389
 30
0.0
 11
-9525.8612428787346
 21
2479.6171937458389
 31
0.0
  0
LINE
  5
184
  8
0
 10
-12090.86124987873
 20
2479.617255745839
 30
0.0
 11
-13590.86132687873
 21
2479.617255745839
 31
0.0
  0
LINE
  5
185
  8
0
 10
-12090.86124987873
 20
2429.617255745839
 30
0.0
 11
-13590.86132687873
 21
2429.617255745839
 31
0.0
  0
LINE
  5
186
  8
0
 10
-13590.86132687873
 20
2429.617255745839
 30
0.0
 11
-13590.86132687873
 21
2479.6172017458389
 31
0.0
  0
LINE
  5
187
  8
0
 10
-12090.86124987873
 20
2479.617255745839
 30
0.0
 11
-12090.86124987873
 21
2429.617255745839
 31
0.0
  0
LINE
  5
188
  8
0
 10
-12090.86124987873
 20
2479.617255745839
 30
0.0
 11
-11590.86124987873
 21
2479.617255745839
 31
0.0
  0
LINE
  5
189
  8
0
 10
-12090.86124987873
 20
2429.617255745839
 30
0.0
 11
-11590.86124987873
 21
2429.617255745839
 31
0.0
  0
LINE
  5
18A
  8
0
 10
-12090.86124987873
 20
2429.617255745839
 30
0.0
 11
-12090.86124987873
 21
2479.617255745839
 31
0.0
  0
LINE
  5
18B
  8
0
 10
-11590.86124987873
 20
2479.617255745839
 30
0.0
 11
-11590.86124987873
 21
2429.617255745839
 31
0.0
  0
LINE
  5
18C
  8
0
 10
-11290.86124387873
 20
2479.6171937458389
 30
0.0
 11
-11590.86124987873
 21
2479.6171937458389
 31
0.0
  0
LINE
  5
18D
  8
0
 10
-11290.86124387873
 20
2429.6171937458389
 30
0.0
 11
-11590.86124987873
 21
2429.6171937458389
 31
0.0
  0
LINE
  5
18E
  8
0
 10
-11590.86124987873
 20
2429.6171937458389
 30
0.0
 11
-11590.86124987873
 21
2479.617255745839
 31
0.0
  0
LINE
  5
18F
  8
0
 10
-11290.86124387873
 20
2429.6171937458389
 30
0.0
 11
-11290.86124387873
 21
2479.6171937458389
 31
0.0
  0
LINE
  5
190
  8
0
 10
-10780.861242878729
 20
2479.6171937458389
 30
0.0
 11
-11290.86124387873
 21
2479.6171937458389
 31
0.0
  0
LINE
  5
191
  8
0
 10
-11290.86124387873
 20
2479.6171937458389
 30
0.0
 11
-10780.861242878729
 21
2479.6171937458389
 31
0.0
  0
LINE
  5
192
  8
0
 10
-10525.861242878729
 20
2479.6171937458389
 30
0.0
 11
-11290.86124387873
 21
2479.6171937458389
 31
0.0
  0
LINE
  5
193
  8
0
 10
-10525.861242878729
 20
2429.6171937458389
 30
0.0
 11
-11290.86124387873
 21
2429.6171937458389
 31
0.0
  0
LINE
  5
194
  8
0
 10
-11290.86124387873
 20
2479.6171937458389
 30
0.0
 11
-11290.86124387873
 21
2429.6171937458389
 31
0.0
  0
LINE
  5
195
  8
0
 10
-10525.861242878729
 20
2429.6171937458389
 30
0.0
 11
-10525.861242878729
 21
2479.6171937458389
 31
0.0
  0
LINE
  5
196
  8
0
 10
-9525.8612428787346
 20
2479.6171937458389
 30
0.0
 11
-10525.861242878729
 21
2479.6171937458389
 31
0.0
  0
LINE
  5
197
  8
0
 10
-9525.8612428787346
 20
2429.6171937458389
 30
0.0
 11
-10525.861242878729
 21
2429.6171937458389
 31
0.0
  0
LINE
  5
198
  8
0
 10
-10525.861242878729
 20
2479.6171937458389
 30
0.0
 11
-10525.861242878729
 21
2429.6171937458389
 31
0.0
  0
LINE
  5
199
  8
0
 10
-9525.8612428787346
 20
2429.6171937458389
 30
0.0
 11
-9525.8612428787346
 21
2479.6171937458389
 31
0.0
  0
LINE
  5
19A
  8
0
 10
-13080.861325878741
 20
2429.617255745839
 30
0.0
 11
-13590.86132687873
 21
2429.617255745839
 31
0.0
  0
LINE
  5
19B
  8
0
 10
-13590.86132687873
 20
2429.617255745839
 30
0.0
 11
-13080.861325878741
 21
2429.617255745839
 31
0.0
  0
LINE
  5
19C
  8
0
 10
-12825.861325878741
 20
2429.617255745839
 30
0.0
 11
-13590.86132687873
 21
2429.617255745839
 31
0.0
  0
LINE
  5
19D
  8
0
 10
-12825.861325878741
 20
2379.617255745839
 30
0.0
 11
-13590.86132687873
 21
2379.617255745839
 31
0.0
  0
LINE
  5
19E
  8
0
 10
-13590.86132687873
 20
2429.617255745839
 30
0.0
 11
-13590.86132687873
 21
2379.617255745839
 31
0.0
  0
LINE
  5
19F
  8
0
 10
-12825.861325878741
 20
2379.617255745839
 30
0.0
 11
-12825.861325878741
 21
2429.617255745839
 31
0.0
  0
LINE
  5
1A0
  8
0
 10
-12825.861325878741
 20
2429.617255745839
 30
0.0
 11
-12325.86132587873
 21
2429.617255745839
 31
0.0
  0
LINE
  5
1A1
  8
0
 10
-12825.861325878741
 20
2379.617255745839
 30
0.0
 11
-12325.86132587873
 21
2379.617255745839
 31
0.0
  0
LINE
  5
1A2
  8
0
 10
-12825.86132587873
 20
2379.617255745839
 30
0.0
 11
-12825.861325878741
 21
2429.617255745839
 31
0.0
  0
LINE
  5
1A3
  8
0
 10
-12325.86132587873
 20
2429.617255745839
 30
0.0
 11
-12325.86132587873
 21
2379.617255745839
 31
0.0
  0
LINE
  5
1A4
  8
0
 10
-11325.861325878741
 20
2429.617255745839
 30
0.0
 11
-12325.86132587873
 21
2429.617255745839
 31
0.0
  0
LINE
  5
1A5
  8
0
 10
-11325.861325878741
 20
2379.617255745839
 30
0.0
 11
-12325.86132587873
 21
2379.617255745839
 31
0.0
  0
LINE
  5
1A6
  8
0
 10
-12325.86132587873
 20
2429.617255745839
 30
0.0
 11
-12325.86132587873
 21
2379.617255745839
 31
0.0
  0
LINE
  5
1A7
  8
0
 10
-11325.86132587873
 20
2379.617255745839
 30
0.0
 11
-11325.861325878741
 21
2429.617255745839
 31
0.0
  0
LINE
  5
1A8
  8
0
 10
-11025.86131987873
 20
2429.6171937458389
 30
0.0
 11
-11325.861325878741
 21
2429.6171937458389
 31
0.0
  0
LINE
  5
1A9
  8
0
 10
-11025.86131987873
 20
2379.6171937458389
 30
0.0
 11
-11325.861325878741
 21
2379.6171937458389
 31
0.0
  0
LINE
  5
1AA
  8
0
 10
-11325.861325878741
 20
2379.6171937458389
 30
0.0
 11
-11325.861325878741
 21
2429.617255745839
 31
0.0
  0
LINE
  5
1AB
  8
0
 10
-11025.86131987873
 20
2379.6171937458389
 30
0.0
 11
-11025.86131987873
 21
2429.6171937458389
 31
0.0
  0
LINE
  5
1AC
  8
0
 10
-9525.8612428787346
 20
2429.6171937458389
 30
0.0
 11
-11025.86131987873
 21
2429.6171937458389
 31
0.0
  0
LINE
  5
1AD
  8
0
 10
-9525.8612428787346
 20
2379.6171937458389
 30
0.0
 11
-11025.86131987873
 21
2379.6171937458389
 31
0.0
  0
LINE
  5
1AE
  8
0
 10
-11025.86131987873
 20
2379.6171937458389
 30
0.0
 11
-11025.86131987873
 21
2429.6171397458379
 31
0.0
  0
LINE
  5
1AF
  8
0
 10
-9525.8612428787346
 20
2429.6171937458389
 30
0.0
 11
-9525.8612428787346
 21
2379.6171937458389
 31
0.0
  0
LINE
  5
1B0
  8
0
 10
-13290.86132087873
 20
2379.6171937458389
 30
0.0
 11
-13590.86132687873
 21
2379.6171937458389
 31
0.0
  0
LINE
  5
1B1
  8
0
 10
-13290.86132087873
 20
2279.6171317458388
 30
0.0
 11
-13590.86132687873
 21
2279.6171317458388
 31
0.0
  0
LINE
  5
1B2
  8
0
 10
-13590.86132687873
 20
2329.6171937458389
 30
0.0
 11
-13590.86132687873
 21
2379.617255745839
 31
0.0
  0
LINE
  5
1B3
  8
0
 10
-13290.86132087873
 20
2329.6171937458389
 30
0.0
 11
-13290.86132087873
 21
2379.6171937458389
 31
0.0
  0
LINE
  5
1B4
  8
0
 10
-11790.86124387873
 20
2379.6171937458389
 30
0.0
 11
-13290.86132087873
 21
2379.6171937458389
 31
0.0
  0
LINE
  5
1B5
  8
0
 10
-11790.86124387873
 20
2279.6171317458388
 30
0.0
 11
-13290.86132087873
 21
2279.6171317458388
 31
0.0
  0
LINE
  5
1B6
  8
0
 10
-13290.86132087873
 20
2329.6171937458389
 30
0.0
 11
-13290.86132087873
 21
2379.6171397458379
 31
0.0
  0
LINE
  5
1B7
  8
0
 10
-11790.86124387873
 20
2379.6171937458389
 30
0.0
 11
-11790.86124387873
 21
2329.6171937458389
 31
0.0
  0
LINE
  5
1B8
  8
0
 10
-11790.86124387873
 20
2379.6171937458389
 30
0.0
 11
-11290.86124387873
 21
2379.6171937458389
 31
0.0
  0
LINE
  5
1B9
  8
0
 10
-11790.86124387873
 20
2279.6171317458388
 30
0.0
 11
-11290.86124387873
 21
2279.6171317458388
 31
0.0
  0
LINE
  5
1BA
  8
0
 10
-11790.86124387873
 20
2329.6171937458389
 30
0.0
 11
-11790.86124387873
 21
2379.6171937458389
 31
0.0
  0
LINE
  5
1BB
  8
0
 10
-11290.86124387873
 20
2379.6171937458389
 30
0.0
 11
-11290.86124387873
 21
2329.6171937458389
 31
0.0
  0
LINE
  5
1BC
  8
0
 10
-10290.86124387873
 20
2379.6171937458389
 30
0.0
 11
-11290.86124387873
 21
2379.6171937458389
 31
0.0
  0
LINE
  5
1BD
  8
0
 10
-10290.86124387873
 20
2279.6171317458388
 30
0.0
 11
-11290.86124387873
 21
2279.6171317458388
 31
0.0
  0
LINE
  5
1BE
  8
0
 10
-11290.86124387873
 20
2379.6171937458389
 30
0.0
 11
-11290.86124387873
 21
2329.6171937458389
 31
0.0
  0
LINE
  5
1BF
  8
0
 10
-10290.86124387873
 20
2329.6171937458389
 30
0.0
 11
-10290.86124387873
 21
2379.6171937458389
 31
0.0
  0
LINE
  5
1C0
  8
0
 10
-9780.8612428787346
 20
2379.6171937458389
 30
0.0
 11
-10290.86124387873
 21
2379.6171937458389
 31
0.0
  0
LINE
  5
1C1
  8
0
 10
-10290.86124387873
 20
2379.6171937458389
 30
0.0
 11
-9780.8612428787346
 21
2379.6171937458389
 31
0.0
  0
LINE
  5
1C2
  8
0
 10
-9525.8612428787346
 20
2379.6171937458389
 30
0.0
 11
-10290.86124387873
 21
2379.6171937458389
 31
0.0
  0
LINE
  5
1C3
  8
0
 10
-9525.8612428787346
 20
2279.6171317458388
 30
0.0
 11
-10290.86124387873
 21
2279.6171317458388
 31
0.0
  0
LINE
  5
1C4
  8
0
 10
-10290.86124387873
 20
2379.6171937458389
 30
0.0
 11
-10290.86124387873
 21
2329.6171937458389
 31
0.0
  0
LINE
  5
1C5
  8
0
 10
-9525.8612428787346
 20
2329.6171937458389
 30
0.0
 11
-9525.8612428787346
 21
2379.6171937458389
 31
0.0
  0
LINE
  5
1C6
  8
0
 10
-10290.86124387873
 20
1679.617061745837
 30
0.0
 11
-11290.86124387873
 21
1679.617061745837
 31
0.0
  0
LINE
  5
1C7
  8
0
 10
-10290.86124387873
 20
1729.617061745837
 30
0.0
 11
-11290.86124387873
 21
1729.617061745837
 31
0.0
  0
LINE
  5
1C8
  8
0
 10
-9525.861242878731
 20
1729.617061745837
 30
0.0
 11
-11025.86131987873
 21
1729.617061745837
 31
0.0
  0
LINE
  5
1C9
  8
0
 10
-9525.861242878731
 20
1779.617061745837
 30
0.0
 11
-11025.86131987873
 21
1779.617061745837
 31
0.0
  0
LINE
  5
1CA
  8
0
 10
-10525.861242878729
 20
1779.617061745837
 30
0.0
 11
-11290.86124387873
 21
1779.617061745837
 31
0.0
  0
LINE
  5
1CB
  8
0
 10
-10525.861242878729
 20
1829.617061745837
 30
0.0
 11
-11290.86124387873
 21
1829.617061745837
 31
0.0
  0
LINE
  5
1CC
  8
0
 10
-11290.86124387873
 20
1829.617061745837
 30
0.0
 11
-10780.861242878729
 21
1829.617061745837
 31
0.0
  0
LINE
  5
1CD
  8
0
 10
-10780.861242878729
 20
1829.617061745837
 30
0.0
 11
-11290.86124387873
 21
1829.617061745837
 31
0.0
  0
LINE
  5
1CE
  8
0
 10
-10325.861248878729
 20
1829.6171237458379
 30
0.0
 11
-11090.86124987873
 21
1829.6171237458379
 31
0.0
  0
LINE
  5
1CF
  8
0
 10
-10325.861248878729
 20
1879.6171237458379
 30
0.0
 11
-11090.86124987873
 21
1879.6171237458379
 31
0.0
  0
LINE
  5
1D0
  8
0
 10
-11090.86124987873
 20
1879.6171237458379
 30
0.0
 11
-10580.861248878729
 21
1879.6171237458379
 31
0.0
  0
LINE
  5
1D1
  8
0
 10
-10580.861248878729
 20
1879.6171237458379
 30
0.0
 11
-11090.86124987873
 21
1879.6171237458379
 31
0.0
  0
LINE
  5
1D2
  8
0
 10
-9525.8612428787346
 20
1879.617061745837
 30
0.0
 11
-11025.86131987873
 21
1879.617061745837
 31
0.0
  0
LINE
  5
1D3
  8
0
 10
-9525.8612428787346
 20
1929.617061745837
 30
0.0
 11
-11025.86131987873
 21
1929.617061745837
 31
0.0
  0
LINE
  5
1D4
  8
0
 10
-10790.86124387873
 20
1929.617061745837
 30
0.0
 11
-11090.86124987873
 21
1929.617061745837
 31
0.0
  0
LINE
  5
1D5
  8
0
 10
-10790.86124387873
 20
1979.617061745837
 30
0.0
 11
-11090.86124987873
 21
1979.617061745837
 31
0.0
  0
LINE
  5
1D6
  8
0
 10
-10825.861248878729
 20
1979.6170697458369
 30
0.0
 11
-12325.86132587873
 21
1979.6170697458369
 31
0.0
  0
LINE
  5
1D7
  8
0
 10
-10825.861248878729
 20
2029.6170697458369
 30
0.0
 11
-12325.86132587873
 21
2029.6170697458369
 31
0.0
  0
LINE
  5
1D8
  8
0
 10
-10525.861242878729
 20
2029.6170697458369
 30
0.0
 11
-12025.86131987873
 21
2029.6170697458369
 31
0.0
  0
LINE
  5
1D9
  8
0
 10
-10525.861242878729
 20
2079.6170697458379
 30
0.0
 11
-12025.86131987873
 21
2079.6170697458379
 31
0.0
  0
LINE
  5
1DA
  8
0
 10
-10325.861248878729
 20
2079.617185745838
 30
0.0
 11
-11090.86124987873
 21
2079.617185745838
 31
0.0
  0
LINE
  5
1DB
  8
0
 10
-10325.861248878729
 20
2129.6171857458389
 30
0.0
 11
-11090.86124987873
 21
2129.6171857458389
 31
0.0
  0
LINE
  5
1DC
  8
0
 10
-11090.86124987873
 20
2129.6171857458389
 30
0.0
 11
-10580.861248878729
 21
2129.6171857458389
 31
0.0
  0
LINE
  5
1DD
  8
0
 10
-10580.861248878729
 20
2129.6171857458389
 30
0.0
 11
-11090.86124987873
 21
2129.6171857458389
 31
0.0
  0
LINE
  5
1DE
  8
0
 10
-9525.8612428787346
 20
2129.6170697458379
 30
0.0
 11
-11025.86131987873
 21
2129.6170697458379
 31
0.0
  0
LINE
  5
1DF
  8
0
 10
-9525.8612428787346
 20
2179.6170697458369
 30
0.0
 11
-11025.86131987873
 21
2179.6170697458369
 31
0.0
  0
LINE
  5
1E0
  8
0
 10
-10790.86124387873
 20
2179.6171317458388
 30
0.0
 11
-12290.86132087873
 21
2179.6171317458388
 31
0.0
  0
LINE
  5
1E1
  8
0
 10
-10790.86124387873
 20
2229.6171317458379
 30
0.0
 11
-12290.86132087873
 21
2229.6171317458379
 31
0.0
  0
LINE
  5
1E2
  8
0
 10
-9825.8612488787367
 20
2279.617193745838
 30
0.0
 11
-11325.861325878741
 21
2279.617193745838
 31
0.0
  0
LINE
  5
1E3
  8
0
 10
-9825.8612488787367
 20
2229.6171937458389
 30
0.0
 11
-11325.861325878741
 21
2229.6171937458389
 31
0.0
  0
LINE
  5
1E4
  8
0
 10
-11790.86124387873
 20
1679.617061745837
 30
0.0
 11
-13290.86132087873
 21
1679.617061745837
 31
0.0
  0
LINE
  5
1E5
  8
0
 10
-11790.86124387873
 20
1729.617061745837
 30
0.0
 11
-13290.86132087873
 21
1729.617061745837
 31
0.0
  0
LINE
  5
1E6
  8
0
 10
-12825.86132587873
 20
1729.617123745837
 30
0.0
 11
-13590.86132687873
 21
1729.617123745837
 31
0.0
  0
LINE
  5
1E7
  8
0
 10
-12825.86132587873
 20
1779.6171237458379
 30
0.0
 11
-13590.86132687873
 21
1779.6171237458379
 31
0.0
  0
LINE
  5
1E8
  8
0
 10
-13590.86132687873
 20
1779.6171237458379
 30
0.0
 11
-13080.86132587873
 21
1779.6171237458379
 31
0.0
  0
LINE
  5
1E9
  8
0
 10
-13080.86132587873
 20
1779.6171237458379
 30
0.0
 11
-13590.86132687873
 21
1779.6171237458379
 31
0.0
  0
LINE
  5
1EA
  8
0
 10
-12090.86124987873
 20
1779.6171237458379
 30
0.0
 11
-13590.86132687873
 21
1779.6171237458379
 31
0.0
  0
LINE
  5
1EB
  8
0
 10
-12090.86124987873
 20
1829.6171237458379
 30
0.0
 11
-13590.86132687873
 21
1829.6171237458379
 31
0.0
  0
LINE
  5
1EC
  8
0
 10
-12590.86132687873
 20
1829.6171237458379
 30
0.0
 11
-13590.86132687873
 21
1829.6171237458379
 31
0.0
  0
LINE
  5
1ED
  8
0
 10
-12590.86132687873
 20
1879.6171237458379
 30
0.0
 11
-13590.86132687873
 21
1879.6171237458379
 31
0.0
  0
LINE
  5
1EE
  8
0
 10
-13590.86132687873
 20
1879.6171237458379
 30
0.0
 11
-13090.86132687873
 21
1879.6171237458379
 31
0.0
  0
LINE
  5
1EF
  8
0
 10
-13590.86132687873
 20
1929.6171237458379
 30
0.0
 11
-13090.86132687873
 21
1929.6171237458379
 31
0.0
  0
LINE
  5
1F0
  8
0
 10
-12090.86124987873
 20
1929.6171237458379
 30
0.0
 11
-13590.86132687873
 21
1929.6171237458379
 31
0.0
  0
LINE
  5
1F1
  8
0
 10
-12090.86124987873
 20
1979.617123745837
 30
0.0
 11
-13590.86132687873
 21
1979.617123745837
 31
0.0
  0
LINE
  5
1F2
  8
0
 10
-12825.86132587873
 20
1979.6170697458369
 30
0.0
 11
-13590.86132687873
 21
1979.6170697458369
 31
0.0
  0
LINE
  5
1F3
  8
0
 10
-12825.86132587873
 20
2029.6170697458369
 30
0.0
 11
-13590.86132687873
 21
2029.6170697458369
 31
0.0
  0
LINE
  5
1F4
  8
0
 10
-13590.86132687873
 20
2029.6170697458369
 30
0.0
 11
-13080.86132587873
 21
2029.6170697458369
 31
0.0
  0
LINE
  5
1F5
  8
0
 10
-13080.86132587873
 20
2029.6170697458369
 30
0.0
 11
-13590.86132687873
 21
2029.6170697458369
 31
0.0
  0
LINE
  5
1F6
  8
0
 10
-12525.86131987873
 20
2029.6170697458369
 30
0.0
 11
-13290.86132087873
 21
2029.6170697458369
 31
0.0
  0
LINE
  5
1F7
  8
0
 10
-12525.86131987873
 20
2079.6170697458379
 30
0.0
 11
-13290.86132087873
 21
2079.6170697458379
 31
0.0
  0
LINE
  5
1F8
  8
0
 10
-13290.86132087873
 20
2079.6170697458379
 30
0.0
 11
-12780.86131987873
 21
2079.6170697458379
 31
0.0
  0
LINE
  5
1F9
  8
0
 10
-12780.86131987873
 20
2079.6170697458379
 30
0.0
 11
-13290.86132087873
 21
2079.6170697458379
 31
0.0
  0
LINE
  5
1FA
  8
0
 10
-12590.86132687873
 20
2079.6171317458379
 30
0.0
 11
-13590.86132687873
 21
2079.6171317458379
 31
0.0
  0
LINE
  5
1FB
  8
0
 10
-12590.86132687873
 20
2129.6171317458379
 30
0.0
 11
-13590.86132687873
 21
2129.6171317458379
 31
0.0
  0
LINE
  5
1FC
  8
0
 10
-13590.86132687873
 20
2129.6171317458379
 30
0.0
 11
-13090.86132687873
 21
2129.6171317458379
 31
0.0
  0
LINE
  5
1FD
  8
0
 10
-13590.86132687873
 20
2179.6171317458388
 30
0.0
 11
-13090.86132687873
 21
2179.6171317458388
 31
0.0
  0
LINE
  5
1FE
  8
0
 10
-12290.86132087873
 20
2179.6171317458388
 30
0.0
 11
-13290.86132087873
 21
2179.6171317458388
 31
0.0
  0
LINE
  5
1FF
  8
0
 10
-12290.86132087873
 20
2229.6171317458379
 30
0.0
 11
-13290.86132087873
 21
2229.6171317458379
 31
0.0
  0
LINE
  5
200
  8
0
 10
-12825.861325878741
 20
2229.6171937458389
 30
0.0
 11
-13590.86132687873
 21
2229.6171937458389
 31
0.0
  0
LINE
  5
201
  8
0
 10
-12825.861325878741
 20
2279.617193745838
 30
0.0
 11
-13590.86132687873
 21
2279.617193745838
 31
0.0
  0
LINE
  5
202
  8
0
 10
-13590.86132687873
 20
2279.617193745838
 30
0.0
 11
-13080.861325878741
 21
2279.617193745838
 31
0.0
  0
LINE
  5
203
  8
0
 10
-13080.861325878741
 20
2279.617193745838
 30
0.0
 11
-13590.86132687873
 21
2279.617193745838
 31
0.0
  0
LINE
  5
204
  8
0
 10
-13590.86132687873
 20
1929.6171237458379
 30
0.0
 11
-13590.86132687873
 21
1979.6170697458369
 31
0.0
  0
LINE
  5
205
  8
0
 10
-13290.86132087873
 20
1679.617061745837
 30
0.0
 11
-13290.86132087873
 21
1729.6170077458371
 31
0.0
  0
LINE
  5
206
  8
0
 10
-13290.86132087873
 20
1679.617061745837
 30
0.0
 11
-13290.86132087873
 21
1729.617061745837
 31
0.0
  0
LINE
  5
207
  8
0
 10
-13590.86132687873
 20
1679.617061745837
 30
0.0
 11
-13590.86132687873
 21
1729.617123745837
 31
0.0
  0
LINE
  5
208
  8
0
 10
-13290.86132087873
 20
1679.617061745837
 30
0.0
 11
-13590.86132687873
 21
1679.617061745837
 31
0.0
  0
LINE
  5
209
  8
0
 10
-13290.86132087873
 20
1729.617061745837
 30
0.0
 11
-13590.86132687873
 21
1729.617061745837
 31
0.0
  0
LINE
  5
20A
  8
0
 10
-13590.86132687873
 20
1879.6171237458379
 30
0.0
 11
-13590.86132687873
 21
1829.6171237458379
 31
0.0
  0
LINE
  5
20B
  8
0
 10
-13590.86132687873
 20
1779.6171237458379
 30
0.0
 11
-13590.86132687873
 21
1729.617123745837
 31
0.0
  0
LINE
  5
20C
  8
0
 10
-13590.86132687873
 20
1779.6171237458379
 30
0.0
 11
-13590.86132687873
 21
1829.6170697458369
 31
0.0
  0
LINE
  5
20D
  8
0
 10
-13590.86132687873
 20
1879.6171237458379
 30
0.0
 11
-13590.86132687873
 21
1929.6171237458379
 31
0.0
  0
LINE
  5
20E
  8
0
 10
-13290.86132087873
 20
2229.6171317458379
 30
0.0
 11
-13290.86132087873
 21
2179.6171317458388
 31
0.0
  0
LINE
  5
20F
  8
0
 10
-13290.86132087873
 20
2179.6171317458388
 30
0.0
 11
-13290.86132087873
 21
2229.6171317458379
 31
0.0
  0
LINE
  5
210
  8
0
 10
-13590.86132687873
 20
2179.6171317458388
 30
0.0
 11
-13590.86132687873
 21
2229.6171937458389
 31
0.0
  0
LINE
  5
211
  8
0
 10
-13290.86132087873
 20
2029.6170697458369
 30
0.0
 11
-13590.86132687873
 21
2029.6170697458369
 31
0.0
  0
LINE
  5
212
  8
0
 10
-13290.86132087873
 20
2079.6170697458379
 30
0.0
 11
-13590.86132687873
 21
2079.6170697458379
 31
0.0
  0
LINE
  5
213
  8
0
 10
-13290.86132087873
 20
2179.6171317458388
 30
0.0
 11
-13590.86132687873
 21
2179.6171317458388
 31
0.0
  0
LINE
  5
214
  8
0
 10
-13590.86132687873
 20
2129.6171317458379
 30
0.0
 11
-13590.86132687873
 21
2079.6171317458379
 31
0.0
  0
LINE
  5
215
  8
0
 10
-13590.86132687873
 20
2029.6170697458369
 30
0.0
 11
-13590.86132687873
 21
1979.6170697458369
 31
0.0
  0
LINE
  5
216
  8
0
 10
-13590.86132687873
 20
2029.6170697458369
 30
0.0
 11
-13590.86132687873
 21
2079.6171317458379
 31
0.0
  0
LINE
  5
217
  8
0
 10
-13590.86132687873
 20
2129.6171317458379
 30
0.0
 11
-13590.86132687873
 21
2179.6171317458388
 31
0.0
  0
LINE
  5
218
  8
0
 10
-13290.86132087873
 20
2079.6170697458379
 30
0.0
 11
-13290.86132087873
 21
2029.6170697458369
 31
0.0
  0
LINE
  5
219
  8
0
 10
-13290.86132087873
 20
2029.6170697458369
 30
0.0
 11
-13290.86132087873
 21
2079.6170697458379
 31
0.0
  0
LINE
  5
21A
  8
0
 10
-13290.86132087873
 20
2229.6171317458379
 30
0.0
 11
-13590.86132687873
 21
2229.6171317458379
 31
0.0
  0
LINE
  5
21B
  8
0
 10
-13590.86132687873
 20
2279.617193745838
 30
0.0
 11
-13590.86132687873
 21
2229.6171937458389
 31
0.0
  0
LINE
  5
21C
  8
0
 10
-11325.86132587873
 20
1729.617123745837
 30
0.0
 11
-12325.86132587873
 21
1729.617123745837
 31
0.0
  0
LINE
  5
21D
  8
0
 10
-11325.86132587873
 20
1779.6171237458379
 30
0.0
 11
-12325.86132587873
 21
1779.6171237458379
 31
0.0
  0
LINE
  5
21E
  8
0
 10
-12090.86124987873
 20
1779.6171237458379
 30
0.0
 11
-11590.86124987873
 21
1779.6171237458379
 31
0.0
  0
LINE
  5
21F
  8
0
 10
-12090.86124987873
 20
1829.6171237458379
 30
0.0
 11
-11590.86124987873
 21
1829.6171237458379
 31
0.0
  0
LINE
  5
220
  8
0
 10
-11090.86124987873
 20
1829.6171237458379
 30
0.0
 11
-12590.86132687873
 21
1829.6171237458379
 31
0.0
  0
LINE
  5
221
  8
0
 10
-11090.86124987873
 20
1879.6171237458379
 30
0.0
 11
-12590.86132687873
 21
1879.6171237458379
 31
0.0
  0
LINE
  5
222
  8
0
 10
-11790.86132087873
 20
1879.617061745837
 30
0.0
 11
-12790.86132087873
 21
1879.617061745837
 31
0.0
  0
LINE
  5
223
  8
0
 10
-11790.86132087873
 20
1929.617061745837
 30
0.0
 11
-12790.86132087873
 21
1929.617061745837
 31
0.0
  0
LINE
  5
224
  8
0
 10
-11090.86124987873
 20
1929.6171237458379
 30
0.0
 11
-12090.86124987873
 21
1929.6171237458379
 31
0.0
  0
LINE
  5
225
  8
0
 10
-11090.86124987873
 20
1979.617123745837
 30
0.0
 11
-12090.86124987873
 21
1979.617123745837
 31
0.0
  0
LINE
  5
226
  8
0
 10
-11090.86124987873
 20
2079.617185745838
 30
0.0
 11
-12590.86132687873
 21
2079.617185745838
 31
0.0
  0
LINE
  5
227
  8
0
 10
-11090.86124987873
 20
2129.6171857458389
 30
0.0
 11
-12590.86132687873
 21
2129.6171857458389
 31
0.0
  0
LINE
  5
228
  8
0
 10
-11790.86132087873
 20
2129.6170697458379
 30
0.0
 11
-12090.86132687873
 21
2129.6170697458379
 31
0.0
  0
LINE
  5
229
  8
0
 10
-11790.86132087873
 20
2179.6170697458369
 30
0.0
 11
-12090.86132687873
 21
2179.6170697458369
 31
0.0
  0
LINE
  5
22A
  8
0
 10
-11325.861325878741
 20
2279.617193745838
 30
0.0
 11
-12325.86132587873
 21
2279.617193745838
 31
0.0
  0
LINE
  5
22B
  8
0
 10
-11325.861325878741
 20
2229.6171937458389
 30
0.0
 11
-12325.86132587873
 21
2229.6171937458389
 31
0.0
  0
LINE
  5
22C
  8
0
 10
-12090.86124987873
 20
1979.617123745837
 30
0.0
 11
-12090.86124987873
 21
1929.6171237458379
 31
0.0
  0
LINE
  5
22D
  8
0
 10
-12090.86124987873
 20
1979.617123745837
 30
0.0
 11
-12090.86124987873
 21
1929.6171237458379
 31
0.0
  0
LINE
  5
22E
  8
0
 10
-12825.86132587873
 20
1729.617123745837
 30
0.0
 11
-12325.86132587873
 21
1729.617123745837
 31
0.0
  0
LINE
  5
22F
  8
0
 10
-12825.86132587873
 20
1779.6171237458379
 30
0.0
 11
-12325.86132587873
 21
1779.6171237458379
 31
0.0
  0
LINE
  5
230
  8
0
 10
-12790.86132087873
 20
1879.617061745837
 30
0.0
 11
-13090.86132687873
 21
1879.617061745837
 31
0.0
  0
LINE
  5
231
  8
0
 10
-12790.86132087873
 20
1929.617061745837
 30
0.0
 11
-13090.86132687873
 21
1929.617061745837
 31
0.0
  0
LINE
  5
232
  8
0
 10
-13090.86132687873
 20
1879.617061745837
 30
0.0
 11
-13090.86132687873
 21
1929.6171237458379
 31
0.0
  0
LINE
  5
233
  8
0
 10
-13090.86132687873
 20
1929.6171237458379
 30
0.0
 11
-13090.86132687873
 21
1879.6171237458379
 31
0.0
  0
LINE
  5
234
  8
0
 10
-12590.86132687873
 20
1829.6171237458379
 30
0.0
 11
-12590.86132687873
 21
1879.6170697458369
 31
0.0
  0
LINE
  5
235
  8
0
 10
-12590.86132687873
 20
1829.6171237458379
 30
0.0
 11
-12590.86132687873
 21
1879.6171237458379
 31
0.0
  0
LINE
  5
236
  8
0
 10
-12825.86132587873
 20
1729.617123745837
 30
0.0
 11
-12825.86132587873
 21
1779.6171237458379
 31
0.0
  0
LINE
  5
237
  8
0
 10
-12825.86132587873
 20
1729.617123745837
 30
0.0
 11
-12825.86132587873
 21
1779.6171237458379
 31
0.0
  0
LINE
  5
238
  8
0
 10
-12790.86132087873
 20
1929.617061745837
 30
0.0
 11
-12790.86132087873
 21
1879.617061745837
 31
0.0
  0
LINE
  5
239
  8
0
 10
-12790.86132087873
 20
1879.617061745837
 30
0.0
 11
-12790.86132087873
 21
1929.617061745837
 31
0.0
  0
LINE
  5
23A
  8
0
 10
-12325.86132587873
 20
1779.6171237458379
 30
0.0
 11
-12325.86132587873
 21
1729.617123745837
 31
0.0
  0
LINE
  5
23B
  8
0
 10
-12325.86132587873
 20
1779.6171237458379
 30
0.0
 11
-12325.86132587873
 21
1729.617123745837
 31
0.0
  0
LINE
  5
23C
  8
0
 10
-12090.86124987873
 20
1779.6171237458379
 30
0.0
 11
-12090.86124987873
 21
1829.6171237458379
 31
0.0
  0
LINE
  5
23D
  8
0
 10
-12090.86124987873
 20
1829.6171237458379
 30
0.0
 11
-12090.86124987873
 21
1779.6171237458379
 31
0.0
  0
LINE
  5
23E
  8
0
 10
-12825.86132587873
 20
1979.6170697458369
 30
0.0
 11
-12325.86132587873
 21
1979.6170697458369
 31
0.0
  0
LINE
  5
23F
  8
0
 10
-12825.86132587873
 20
2029.6170697458369
 30
0.0
 11
-12325.86132587873
 21
2029.6170697458369
 31
0.0
  0
LINE
  5
240
  8
0
 10
-12090.86132687873
 20
2129.6171317458379
 30
0.0
 11
-13090.86132687873
 21
2129.6171317458379
 31
0.0
  0
LINE
  5
241
  8
0
 10
-12090.86132687873
 20
2179.6171317458388
 30
0.0
 11
-13090.86132687873
 21
2179.6171317458388
 31
0.0
  0
LINE
  5
242
  8
0
 10
-12825.861325878741
 20
2279.617193745838
 30
0.0
 11
-12325.86132587873
 21
2279.617193745838
 31
0.0
  0
LINE
  5
243
  8
0
 10
-12825.861325878741
 20
2229.6171937458389
 30
0.0
 11
-12325.86132587873
 21
2229.6171937458389
 31
0.0
  0
LINE
  5
244
  8
0
 10
-13090.86132687873
 20
2179.6171317458388
 30
0.0
 11
-13090.86132687873
 21
2129.6171317458379
 31
0.0
  0
LINE
  5
245
  8
0
 10
-13090.86132687873
 20
2179.6171317458388
 30
0.0
 11
-13090.86132687873
 21
2129.6171317458379
 31
0.0
  0
LINE
  5
246
  8
0
 10
-12590.86132687873
 20
2079.617185745838
 30
0.0
 11
-12590.86132687873
 21
2129.6171317458379
 31
0.0
  0
LINE
  5
247
  8
0
 10
-12590.86132687873
 20
2079.6171317458379
 30
0.0
 11
-12590.86132687873
 21
2129.6171317458379
 31
0.0
  0
LINE
  5
248
  8
0
 10
-12825.86132587873
 20
1979.6170697458369
 30
0.0
 11
-12825.86132587873
 21
2029.6170697458369
 31
0.0
  0
LINE
  5
249
  8
0
 10
-12825.86132587873
 20
1979.6170697458369
 30
0.0
 11
-12825.86132587873
 21
2029.6170697458369
 31
0.0
  0
LINE
  5
24A
  8
0
 10
-12825.86132587873
 20
2229.6171937458389
 30
0.0
 11
-12825.861325878741
 21
2279.617193745838
 31
0.0
  0
LINE
  5
24B
  8
0
 10
-12825.861325878741
 20
2229.6171937458389
 30
0.0
 11
-12825.861325878741
 21
2279.617193745838
 31
0.0
  0
LINE
  5
24C
  8
0
 10
-12290.86132087873
 20
2179.6171317458388
 30
0.0
 11
-12290.86132087873
 21
2229.6170777458378
 31
0.0
  0
LINE
  5
24D
  8
0
 10
-12290.86132087873
 20
2179.6171317458388
 30
0.0
 11
-12290.86132087873
 21
2229.6171317458379
 31
0.0
  0
LINE
  5
24E
  8
0
 10
-12525.86131987873
 20
2029.6170697458369
 30
0.0
 11
-12025.86131987873
 21
2029.6170697458369
 31
0.0
  0
LINE
  5
24F
  8
0
 10
-12525.86131987873
 20
2079.6170697458379
 30
0.0
 11
-12025.86131987873
 21
2079.6170697458379
 31
0.0
  0
LINE
  5
250
  8
0
 10
-12525.86131987873
 20
2029.6170697458369
 30
0.0
 11
-12525.86131987873
 21
2079.6170697458379
 31
0.0
  0
LINE
  5
251
  8
0
 10
-12525.86131987873
 20
2029.6170697458369
 30
0.0
 11
-12525.86131987873
 21
2079.6170697458379
 31
0.0
  0
LINE
  5
252
  8
0
 10
-12325.86132587873
 20
1979.6170697458369
 30
0.0
 11
-12325.86132587873
 21
2029.617015745838
 31
0.0
  0
LINE
  5
253
  8
0
 10
-12325.86132587873
 20
2029.6170697458369
 30
0.0
 11
-12325.86132587873
 21
1979.6170697458369
 31
0.0
  0
LINE
  5
254
  8
0
 10
-12025.86131987873
 20
2029.6170697458369
 30
0.0
 11
-12025.86131987873
 21
2079.6170157458369
 31
0.0
  0
LINE
  5
255
  8
0
 10
-12025.86131987873
 20
2079.6170697458379
 30
0.0
 11
-12025.86131987873
 21
2029.6170697458369
 31
0.0
  0
LINE
  5
256
  8
0
 10
-12090.86132687873
 20
2129.6170697458379
 30
0.0
 11
-12090.86132687873
 21
2179.6171317458388
 31
0.0
  0
LINE
  5
257
  8
0
 10
-12090.86132687873
 20
2129.6171317458379
 30
0.0
 11
-12090.86132687873
 21
2179.6171317458388
 31
0.0
  0
LINE
  5
258
  8
0
 10
-12325.86132587873
 20
2279.617193745838
 30
0.0
 11
-12325.86132587873
 21
2229.6171937458389
 31
0.0
  0
LINE
  5
259
  8
0
 10
-12325.86132587873
 20
2279.617193745838
 30
0.0
 11
-12325.86132587873
 21
2229.6171937458389
 31
0.0
  0
LINE
  5
25A
  8
0
 10
-11090.86124987873
 20
1929.617061745837
 30
0.0
 11
-11090.86124987873
 21
1979.617123745837
 31
0.0
  0
LINE
  5
25B
  8
0
 10
-11090.86124987873
 20
1929.6171237458379
 30
0.0
 11
-11090.86124987873
 21
1979.617123745837
 31
0.0
  0
LINE
  5
25C
  8
0
 10
-11790.86124387873
 20
1679.617061745837
 30
0.0
 11
-11290.86124387873
 21
1679.617061745837
 31
0.0
  0
LINE
  5
25D
  8
0
 10
-11790.86124387873
 20
1729.617061745837
 30
0.0
 11
-11290.86124387873
 21
1729.617061745837
 31
0.0
  0
LINE
  5
25E
  8
0
 10
-11290.86124387873
 20
1779.617061745837
 30
0.0
 11
-11590.86124987873
 21
1779.617061745837
 31
0.0
  0
LINE
  5
25F
  8
0
 10
-11290.86124387873
 20
1829.617061745837
 30
0.0
 11
-11590.86124987873
 21
1829.617061745837
 31
0.0
  0
LINE
  5
260
  8
0
 10
-11025.86131987873
 20
1879.617061745837
 30
0.0
 11
-11790.86132087873
 21
1879.617061745837
 31
0.0
  0
LINE
  5
261
  8
0
 10
-11025.86131987873
 20
1929.617061745837
 30
0.0
 11
-11790.86132087873
 21
1929.617061745837
 31
0.0
  0
LINE
  5
262
  8
0
 10
-11790.86132087873
 20
1929.617061745837
 30
0.0
 11
-11280.86131987873
 21
1929.617061745837
 31
0.0
  0
LINE
  5
263
  8
0
 10
-11280.86131987873
 20
1929.617061745837
 30
0.0
 11
-11790.86132087873
 21
1929.617061745837
 31
0.0
  0
LINE
  5
264
  8
0
 10
-11790.86124387872
 20
1679.617061745837
 30
0.0
 11
-11790.86124387873
 21
1729.617061745837
 31
0.0
  0
LINE
  5
265
  8
0
 10
-11790.86124387873
 20
1729.617061745837
 30
0.0
 11
-11790.86124387873
 21
1679.617061745837
 31
0.0
  0
LINE
  5
266
  8
0
 10
-11790.86132087873
 20
1929.617061745837
 30
0.0
 11
-11790.86132087873
 21
1879.617061745837
 31
0.0
  0
LINE
  5
267
  8
0
 10
-11790.86132087873
 20
1879.617061745837
 30
0.0
 11
-11790.86132087873
 21
1929.617061745837
 31
0.0
  0
LINE
  5
268
  8
0
 10
-11590.86124987873
 20
1779.617061745837
 30
0.0
 11
-11590.86124987873
 21
1829.6171237458379
 31
0.0
  0
LINE
  5
269
  8
0
 10
-11590.86124987873
 20
1829.6171237458379
 30
0.0
 11
-11590.86124987873
 21
1779.6171237458379
 31
0.0
  0
LINE
  5
26A
  8
0
 10
-11290.86124387873
 20
1729.617061745837
 30
0.0
 11
-11290.86124387873
 21
1679.617061745837
 31
0.0
  0
LINE
  5
26B
  8
0
 10
-11290.86124387873
 20
1729.617061745837
 30
0.0
 11
-11290.86124387873
 21
1679.617061745837
 31
0.0
  0
LINE
  5
26C
  8
0
 10
-11025.86131987873
 20
1729.617061745837
 30
0.0
 11
-11325.86132587873
 21
1729.617061745837
 31
0.0
  0
LINE
  5
26D
  8
0
 10
-11025.86131987873
 20
1779.617061745837
 30
0.0
 11
-11325.86132587873
 21
1779.617061745837
 31
0.0
  0
LINE
  5
26E
  8
0
 10
-11325.86132587873
 20
1729.617061745837
 30
0.0
 11
-11325.86132587873
 21
1779.6171237458379
 31
0.0
  0
LINE
  5
26F
  8
0
 10
-11325.86132587873
 20
1729.617123745837
 30
0.0
 11
-11325.86132587873
 21
1779.6171237458379
 31
0.0
  0
LINE
  5
270
  8
0
 10
-11290.86124387873
 20
1829.617061745837
 30
0.0
 11
-11290.86124387873
 21
1779.617061745837
 31
0.0
  0
LINE
  5
271
  8
0
 10
-11290.86124387873
 20
1779.617061745837
 30
0.0
 11
-11290.86124387873
 21
1829.617061745837
 31
0.0
  0
LINE
  5
272
  8
0
 10
-11090.86124987873
 20
1879.6171237458379
 30
0.0
 11
-11090.86124987873
 21
1829.6171237458379
 31
0.0
  0
LINE
  5
273
  8
0
 10
-11090.86124987873
 20
1879.6171237458379
 30
0.0
 11
-11090.86124987873
 21
1829.6171237458379
 31
0.0
  0
LINE
  5
274
  8
0
 10
-11025.86131987873
 20
1729.617061745837
 30
0.0
 11
-11025.86131987873
 21
1779.6170077458371
 31
0.0
  0
LINE
  5
275
  8
0
 10
-11025.86131987873
 20
1729.617061745837
 30
0.0
 11
-11025.86131987873
 21
1779.617061745837
 31
0.0
  0
LINE
  5
276
  8
0
 10
-11025.86131987873
 20
1879.617061745837
 30
0.0
 11
-11025.86131987873
 21
1929.6170077458371
 31
0.0
  0
LINE
  5
277
  8
0
 10
-11025.86131987873
 20
1879.617061745837
 30
0.0
 11
-11025.86131987873
 21
1929.617061745837
 31
0.0
  0
LINE
  5
278
  8
0
 10
-11025.86131987873
 20
2129.6170697458379
 30
0.0
 11
-11790.86132087873
 21
2129.6170697458379
 31
0.0
  0
LINE
  5
279
  8
0
 10
-11025.86131987873
 20
2179.6170697458369
 30
0.0
 11
-11790.86132087873
 21
2179.6170697458369
 31
0.0
  0
LINE
  5
27A
  8
0
 10
-11790.86132087873
 20
2179.6170697458369
 30
0.0
 11
-11280.86131987873
 21
2179.6170697458369
 31
0.0
  0
LINE
  5
27B
  8
0
 10
-11280.86131987873
 20
2179.6170697458369
 30
0.0
 11
-11790.86132087873
 21
2179.6170697458369
 31
0.0
  0
LINE
  5
27C
  8
0
 10
-11790.86132087873
 20
2179.6170697458369
 30
0.0
 11
-11790.86132087873
 21
2129.6170697458379
 31
0.0
  0
LINE
  5
27D
  8
0
 10
-11790.86132087873
 20
2129.6170697458379
 30
0.0
 11
-11790.86132087873
 21
2179.6170697458369
 31
0.0
  0
LINE
  5
27E
  8
0
 10
-11090.86124987873
 20
2129.6171857458389
 30
0.0
 11
-11090.86124987873
 21
2079.617185745838
 31
0.0
  0
LINE
  5
27F
  8
0
 10
-11090.86124987873
 20
2129.6171857458389
 30
0.0
 11
-11090.86124987873
 21
2079.617185745838
 31
0.0
  0
LINE
  5
280
  8
0
 10
-11025.86131987873
 20
2129.6170697458379
 30
0.0
 11
-11025.86131987873
 21
2179.6170157458369
 31
0.0
  0
LINE
  5
281
  8
0
 10
-11025.86131987873
 20
2129.6170697458379
 30
0.0
 11
-11025.86131987873
 21
2179.6170697458369
 31
0.0
  0
LINE
  5
282
  8
0
 10
-11325.861325878741
 20
2229.6171937458389
 30
0.0
 11
-11325.861325878741
 21
2279.6171397458379
 31
0.0
  0
LINE
  5
283
  8
0
 10
-11325.86132587873
 20
2229.6171937458389
 30
0.0
 11
-11325.861325878741
 21
2279.617193745838
 31
0.0
  0
LINE
  5
284
  8
0
 10
-9525.861242878731
 20
1679.617061745837
 30
0.0
 11
-10290.86124387873
 21
1679.617061745837
 31
0.0
  0
LINE
  5
285
  8
0
 10
-9525.861242878731
 20
1729.617061745837
 30
0.0
 11
-10290.86124387873
 21
1729.617061745837
 31
0.0
  0
LINE
  5
286
  8
0
 10
-10290.86124387873
 20
1729.617061745837
 30
0.0
 11
-9780.8612428787328
 21
1729.617061745837
 31
0.0
  0
LINE
  5
287
  8
0
 10
-9780.8612428787328
 20
1729.617061745837
 30
0.0
 11
-10290.86124387873
 21
1729.617061745837
 31
0.0
  0
LINE
  5
288
  8
0
 10
-9525.861242878731
 20
1779.617061745837
 30
0.0
 11
-10525.861242878729
 21
1779.617061745837
 31
0.0
  0
LINE
  5
289
  8
0
 10
-9525.861242878731
 20
1829.617061745837
 30
0.0
 11
-10525.861242878729
 21
1829.617061745837
 31
0.0
  0
LINE
  5
28A
  8
0
 10
-10025.861242878729
 20
1829.617061745837
 30
0.0
 11
-9525.861242878731
 21
1829.617061745837
 31
0.0
  0
LINE
  5
28B
  8
0
 10
-10025.861242878729
 20
1879.617061745837
 30
0.0
 11
-9525.861242878731
 21
1879.617061745837
 31
0.0
  0
LINE
  5
28C
  8
0
 10
-9525.8612428787346
 20
1929.617061745837
 30
0.0
 11
-10290.86124387873
 21
1929.617061745837
 31
0.0
  0
LINE
  5
28D
  8
0
 10
-9525.8612428787346
 20
1979.617061745837
 30
0.0
 11
-10290.86124387873
 21
1979.617061745837
 31
0.0
  0
LINE
  5
28E
  8
0
 10
-10290.86124387873
 20
1979.617061745837
 30
0.0
 11
-9780.8612428787346
 21
1979.617061745837
 31
0.0
  0
LINE
  5
28F
  8
0
 10
-9780.8612428787346
 20
1979.617061745837
 30
0.0
 11
-10290.86124387873
 21
1979.617061745837
 31
0.0
  0
LINE
  5
290
  8
0
 10
-9525.8612428787346
 20
1979.6170697458369
 30
0.0
 11
-9825.8612488787348
 21
1979.6170697458369
 31
0.0
  0
LINE
  5
291
  8
0
 10
-9525.8612428787346
 20
2029.6170697458369
 30
0.0
 11
-9825.8612488787348
 21
2029.6170697458369
 31
0.0
  0
LINE
  5
292
  8
0
 10
-9525.8612428787346
 20
2029.6170697458369
 30
0.0
 11
-10525.861242878729
 21
2029.6170697458369
 31
0.0
  0
LINE
  5
293
  8
0
 10
-9525.8612428787346
 20
2079.6170697458379
 30
0.0
 11
-10525.861242878729
 21
2079.6170697458379
 31
0.0
  0
LINE
  5
294
  8
0
 10
-10025.861242878729
 20
2079.617123745837
 30
0.0
 11
-9525.8612428787346
 21
2079.617123745837
 31
0.0
  0
LINE
  5
295
  8
0
 10
-10025.861242878729
 20
2129.6171237458379
 30
0.0
 11
-9525.8612428787346
 21
2129.6171237458379
 31
0.0
  0
LINE
  5
296
  8
0
 10
-9525.8612428787346
 20
2179.6171317458388
 30
0.0
 11
-10290.86124387873
 21
2179.6171317458388
 31
0.0
  0
LINE
  5
297
  8
0
 10
-9525.8612428787346
 20
2229.6171317458379
 30
0.0
 11
-10290.86124387873
 21
2229.6171317458379
 31
0.0
  0
LINE
  5
298
  8
0
 10
-10290.86124387873
 20
2229.6171317458379
 30
0.0
 11
-9780.8612428787346
 21
2229.6171317458379
 31
0.0
  0
LINE
  5
299
  8
0
 10
-9780.8612428787346
 20
2229.6171317458379
 30
0.0
 11
-10290.86124387873
 21
2229.6171317458379
 31
0.0
  0
LINE
  5
29A
  8
0
 10
-9525.8612428787346
 20
2279.6171317458388
 30
0.0
 11
-9825.8612488787367
 21
2279.6171317458388
 31
0.0
  0
LINE
  5
29B
  8
0
 10
-9525.8612428787346
 20
2229.6171317458379
 30
0.0
 11
-9825.8612488787367
 21
2229.6171317458379
 31
0.0
  0
LINE
  5
29C
  8
0
 10
-10290.86124387873
 20
1979.617061745837
 30
0.0
 11
-10290.86124387873
 21
1929.617061745837
 31
0.0
  0
LINE
  5
29D
  8
0
 10
-10290.86124387873
 20
1979.617061745837
 30
0.0
 11
-10290.86124387873
 21
1929.617061745837
 31
0.0
  0
LINE
  5
29E
  8
0
 10
-10790.86124387873
 20
1929.617061745837
 30
0.0
 11
-10790.86124387873
 21
1979.617061745837
 31
0.0
  0
LINE
  5
29F
  8
0
 10
-10790.86124387873
 20
1929.617061745837
 30
0.0
 11
-10790.86124387873
 21
1979.617061745837
 31
0.0
  0
LINE
  5
2A0
  8
0
 10
-10790.86124387873
 20
1929.617061745837
 30
0.0
 11
-10290.86124387873
 21
1929.617061745837
 31
0.0
  0
LINE
  5
2A1
  8
0
 10
-10525.861242878729
 20
1829.617061745837
 30
0.0
 11
-10525.861242878729
 21
1779.617061745837
 31
0.0
  0
LINE
  5
2A2
  8
0
 10
-10525.861242878729
 20
1779.617061745837
 30
0.0
 11
-10525.861242878729
 21
1829.617061745837
 31
0.0
  0
LINE
  5
2A3
  8
0
 10
-10290.86124387873
 20
1729.617061745837
 30
0.0
 11
-10290.86124387873
 21
1679.617061745837
 31
0.0
  0
LINE
  5
2A4
  8
0
 10
-10290.86124387873
 20
1679.617061745837
 30
0.0
 11
-10290.86124387873
 21
1729.617061745837
 31
0.0
  0
LINE
  5
2A5
  8
0
 10
-10025.861242878729
 20
1829.617061745837
 30
0.0
 11
-10325.861248878729
 21
1829.617061745837
 31
0.0
  0
LINE
  5
2A6
  8
0
 10
-10025.861242878729
 20
1879.617061745837
 30
0.0
 11
-10325.861248878729
 21
1879.617061745837
 31
0.0
  0
LINE
  5
2A7
  8
0
 10
-10325.861248878729
 20
1829.617061745837
 30
0.0
 11
-10325.861248878729
 21
1879.6171237458379
 31
0.0
  0
LINE
  5
2A8
  8
0
 10
-10325.861248878729
 20
1829.6171237458379
 30
0.0
 11
-10325.861248878729
 21
1879.6171237458379
 31
0.0
  0
LINE
  5
2A9
  8
0
 10
-10025.861242878729
 20
1829.617061745837
 30
0.0
 11
-10025.861242878729
 21
1879.617061745837
 31
0.0
  0
LINE
  5
2AA
  8
0
 10
-10025.861242878729
 20
1829.617061745837
 30
0.0
 11
-10025.861242878729
 21
1879.617061745837
 31
0.0
  0
LINE
  5
2AB
  8
0
 10
-10790.86124387873
 20
1979.617061745837
 30
0.0
 11
-10290.86124387873
 21
1979.617061745837
 31
0.0
  0
LINE
  5
2AC
  8
0
 10
-9825.8612488787348
 20
1979.6170697458369
 30
0.0
 11
-10825.861248878729
 21
1979.6170697458369
 31
0.0
  0
LINE
  5
2AD
  8
0
 10
-9825.8612488787348
 20
2029.6170697458369
 30
0.0
 11
-10825.861248878729
 21
2029.6170697458369
 31
0.0
  0
LINE
  5
2AE
  8
0
 10
-10790.86124387873
 20
2179.6171317458388
 30
0.0
 11
-10290.86124387873
 21
2179.6171317458388
 31
0.0
  0
LINE
  5
2AF
  8
0
 10
-10790.86124387873
 20
2229.6171317458379
 30
0.0
 11
-10290.86124387873
 21
2229.6171317458379
 31
0.0
  0
LINE
  5
2B0
  8
0
 10
-10790.86124387873
 20
2179.6171317458388
 30
0.0
 11
-10790.86124387873
 21
2229.6171317458379
 31
0.0
  0
LINE
  5
2B1
  8
0
 10
-10790.86124387873
 20
2229.6171317458379
 30
0.0
 11
-10790.86124387873
 21
2179.6171317458388
 31
0.0
  0
LINE
  5
2B2
  8
0
 10
-10825.861248878729
 20
2029.6170697458369
 30
0.0
 11
-10825.861248878729
 21
1979.6170697458369
 31
0.0
  0
LINE
  5
2B3
  8
0
 10
-10825.861248878729
 20
2029.6170697458369
 30
0.0
 11
-10825.861248878729
 21
1979.6170697458369
 31
0.0
  0
LINE
  5
2B4
  8
0
 10
-10525.861242878729
 20
2079.6170697458379
 30
0.0
 11
-10525.861242878729
 21
2029.6170697458369
 31
0.0
  0
LINE
  5
2B5
  8
0
 10
-10525.861242878729
 20
2079.6170697458379
 30
0.0
 11
-10525.861242878729
 21
2029.6170697458369
 31
0.0
  0
LINE
  5
2B6
  8
0
 10
-10290.86124387873
 20
2229.6171317458379
 30
0.0
 11
-10290.86124387873
 21
2179.6171317458388
 31
0.0
  0
LINE
  5
2B7
  8
0
 10
-10290.86124387873
 20
2229.6171317458379
 30
0.0
 11
-10290.86124387873
 21
2179.6171317458388
 31
0.0
  0
LINE
  5
2B8
  8
0
 10
-10025.861242878729
 20
2079.617123745837
 30
0.0
 11
-10325.861248878729
 21
2079.617123745837
 31
0.0
  0
LINE
  5
2B9
  8
0
 10
-10025.861242878729
 20
2129.6171237458379
 30
0.0
 11
-10325.861248878729
 21
2129.6171237458379
 31
0.0
  0
LINE
  5
2BA
  8
0
 10
-10325.861248878729
 20
2079.617123745837
 30
0.0
 11
-10325.861248878729
 21
2129.6171857458389
 31
0.0
  0
LINE
  5
2BB
  8
0
 10
-10325.861248878729
 20
2079.617185745838
 30
0.0
 11
-10325.861248878729
 21
2129.6171857458389
 31
0.0
  0
LINE
  5
2BC
  8
0
 10
-10025.861242878729
 20
2079.617123745837
 30
0.0
 11
-10025.861242878729
 21
2129.6171237458379
 31
0.0
  0
LINE
  5
2BD
  8
0
 10
-10025.861242878729
 20
2079.617123745837
 30
0.0
 11
-10025.861242878729
 21
2129.6171237458379
 31
0.0
  0
LINE
  5
2BE
  8
0
 10
-9825.8612488787348
 20
1979.6170697458369
 30
0.0
 11
-9825.8612488787348
 21
2029.6171317458379
 31
0.0
  0
LINE
  5
2BF
  8
0
 10
-9825.8612488787348
 20
1979.6170697458369
 30
0.0
 11
-9825.8612488787348
 21
2029.6170697458369
 31
0.0
  0
LINE
  5
2C0
  8
0
 10
-9825.8612488787367
 20
2229.6171317458379
 30
0.0
 11
-9825.8612488787367
 21
2279.617193745838
 31
0.0
  0
LINE
  5
2C1
  8
0
 10
-9825.8612488787367
 20
2279.617193745838
 30
0.0
 11
-9825.8612488787367
 21
2229.6171937458389
 31
0.0
  0
LINE
  5
2C2
  8
0
 10
-9525.8612428787346
 20
1929.617061745837
 30
0.0
 11
-9525.8612428787346
 21
1979.617061745837
 31
0.0
  0
LINE
  5
2C3
  8
0
 10
-9525.861242878731
 20
1679.617061745837
 30
0.0
 11
-9525.861242878731
 21
1729.617061745837
 31
0.0
  0
LINE
  5
2C4
  8
0
 10
-9525.861242878731
 20
1879.617061745837
 30
0.0
 11
-9525.861242878731
 21
1829.617061745837
 31
0.0
  0
LINE
  5
2C5
  8
0
 10
-9525.861242878731
 20
1779.617061745837
 30
0.0
 11
-9525.861242878731
 21
1729.617061745837
 31
0.0
  0
LINE
  5
2C6
  8
0
 10
-9525.861242878731
 20
1779.617061745837
 30
0.0
 11
-9525.861242878731
 21
1829.617061745837
 31
0.0
  0
LINE
  5
2C7
  8
0
 10
-9525.8612428787346
 20
1929.617061745837
 30
0.0
 11
-9525.8612428787346
 21
1879.617061745837
 31
0.0
  0
LINE
  5
2C8
  8
0
 10
-9525.8612428787346
 20
2179.6171317458388
 30
0.0
 11
-9525.8612428787346
 21
2229.6171317458379
 31
0.0
  0
LINE
  5
2C9
  8
0
 10
-9525.8612428787346
 20
2129.6171237458379
 30
0.0
 11
-9525.8612428787346
 21
2079.617123745837
 31
0.0
  0
LINE
  5
2CA
  8
0
 10
-9525.8612428787346
 20
1979.6170697458369
 30
0.0
 11
-9525.8612428787346
 21
2029.6170697458369
 31
0.0
  0
LINE
  5
2CB
  8
0
 10
-9525.861242878731
 20
2029.6170697458369
 30
0.0
 11
-9525.8612428787346
 21
2079.6170697458379
 31
0.0
  0
LINE
  5
2CC
  8
0
 10
-9525.8612428787346
 20
2179.6170697458369
 30
0.0
 11
-9525.8612428787346
 21
2129.6170697458379
 31
0.0
  0
LINE
  5
2CD
  8
0
 10
-9525.8612428787346
 20
2229.6171317458379
 30
0.0
 11
-9525.8612428787346
 21
2279.6171317458388
 31
0.0
  0
LINE
  5
2CE
  8
0
 10
-9525.8612428787383
 20
2829.6172017458389
 30
0.0
 11
-9525.8612428787383
 21
2779.617255745839
 31
0.0
  0
LINE
  5
2CF
  8
0
 10
-9525.8612428787383
 20
2579.6171937458389
 30
0.0
 11
-9525.8612428787346
 21
2529.6171937458389
 31
0.0
  0
LINE
  5
2D0
  8
0
 10
-9525.8612428787346
 20
2429.6171937458389
 30
0.0
 11
-9525.8612428787346
 21
2379.6171937458389
 31
0.0
  0
LINE
  5
2D1
  8
0
 10
-9525.8612428787346
 20
2179.6170697458369
 30
0.0
 11
-9525.8612428787346
 21
2129.6170697458379
 31
0.0
  0
LINE
  5
2D2
  8
0
 10
-9525.861242878731
 20
1879.617061745837
 30
0.0
 11
-9525.8612428787346
 21
1929.617061745837
 31
0.0
  0
LINE
  5
2D3
  8
0
 10
-9525.861242878731
 20
1729.617061745837
 30
0.0
 11
-9525.861242878731
 21
1779.617061745837
 31
0.0
  0
LINE
  5
2D4
  8
0
 10
-13590.86132687873
 20
1729.617123745837
 30
0.0
 11
-13590.86132687873
 21
1779.6171237458379
 31
0.0
  0
LINE
  5
2D5
  8
0
 10
-13590.86132687873
 20
1979.617123745837
 30
0.0
 11
-13590.86132687873
 21
2029.6170697458369
 31
0.0
  0
LINE
  5
2D6
  8
0
 10
-13590.86132687873
 20
2379.617255745839
 30
0.0
 11
-13590.86132687873
 21
2429.617255745839
 31
0.0
  0
LINE
  5
2D7
  8
0
 10
-13590.861326878739
 20
2629.6172017458389
 30
0.0
 11
-13590.861326878739
 21
2679.6172017458389
 31
0.0
  0
LINE
  5
2DC
  8
0
 10
-13590.86132687873
 20
2329.6171937458389
 30
0.0
 11
-9525.8612428787346
 21
2329.6171937458389
 31
0.0
  0
LINE
  5
2DD
  8
0
 10
-13590.86132687873
 20
2329.6171937458389
 30
0.0
 11
-13590.86132687873
 21
2279.617193745838
 31
0.0
  0
LINE
  5
2DE
  8
0
 10
-12590.86132687873
 20
2279.6172477458381
 30
0.0
 11
-12590.86132687873
 21
2329.6171937458389
 31
0.0
  0
LINE
  5
2DF
  8
0
 10
-12590.86132687873
 20
2279.617193745838
 30
0.0
 11
-12590.86132687873
 21
2329.6171937458389
 31
0.0
  0
LINE
  5
2E0
  8
0
 10
-11090.86124987873
 20
2329.6172477458381
 30
0.0
 11
-11090.86124987873
 21
2279.6172477458381
 31
0.0
  0
LINE
  5
2E1
  8
0
 10
-11090.86124987873
 20
2329.6172477458381
 30
0.0
 11
-11090.86124987873
 21
2279.6172477458381
 31
0.0
  0
LINE
  5
2E2
  8
0
 10
-10325.861248878729
 20
2279.617185745838
 30
0.0
 11
-10325.861248878729
 21
2329.6172477458381
 31
0.0
  0
LINE
  5
2E3
  8
0
 10
-10325.861248878729
 20
2279.6172477458381
 30
0.0
 11
-10325.861248878729
 21
2329.6172477458381
 31
0.0
  0
LINE
  5
2E4
  8
0
 10
-10025.861242878729
 20
2279.617185745838
 30
0.0
 11
-10025.861242878729
 21
2329.617185745838
 31
0.0
  0
LINE
  5
2E5
  8
0
 10
-10025.861242878729
 20
2279.617185745838
 30
0.0
 11
-10025.861242878729
 21
2329.617185745838
 31
0.0
  0
LINE
  5
2E6
  8
0
 10
-9525.8612428787346
 20
2329.617185745838
 30
0.0
 11
-9525.8612428787346
 21
2279.617185745838
 31
0.0
  0
POLYLINE
  5
436
  8
0
 66
     1
 10
0.0
 20
0.0
 30
0.0
  0
VERTEX
  5
437
  8
0
 10
-12411.11322600068
 20
1028.346210993351
 30
0.0
 42
-0.0916670738403237
  0
VERTEX
  5
438
  8
0
 10
-12421.947649192531
 20
1023.570201060533
 30
0.0
 42
-0.1056979417585127
  0
VERTEX
  5
439
  8
0
 10
-12432.24205558927
 20
1023.346210993351
 30
0.0
 42
-0.1078418749257769
  0
VERTEX
  5
43A
  8
0
 10
-12439.788611816661
 20
1026.5699187129539
 30
0.0
 42
0.1546478595467482
  0
VERTEX
  5
43B
  8
0
 10
-12445.30155548229
 20
1028.346210993351
 30
0.0
 42
0.1804007426235365
  0
VERTEX
  5
43C
  8
0
 10
-12451.625963203051
 20
1026.0223724117329
 30
0.0
 42
-0.1669612857236485
  0
VERTEX
  5
43D
  8
0
 10
-12458.361030164109
 20
1023.346210993351
 30
0.0
 42
-0.1377807434661302
  0
VERTEX
  5
43E
  8
0
 10
-12467.387726620011
 20
1025.4263628368069
 30
0.0
 42
0.1158283502867649
  0
VERTEX
  5
43F
  8
0
 10
-12477.95028000363
 20
1028.346210993351
 30
0.0
 42
0.1260058766128204
  0
VERTEX
  5
440
  8
0
 10
-12491.13146694378
 20
1025.5143997854759
 30
0.0
 42
-0.1416031919178112
  0
VERTEX
  5
441
  8
0
 10
-12502.980962920719
 20
1023.346210993351
 30
0.0
 42
-0.1182297497458096
  0
VERTEX
  5
442
  8
0
 10
-12509.94703008328
 20
1025.776929636012
 30
0.0
 42
0.1142582045074363
  0
VERTEX
  5
443
  8
0
 10
-12517.128754471491
 20
1028.346210993351
 30
0.0
 42
0.2321895392944741
  0
VERTEX
  5
444
  8
0
 10
-12525.87375662613
 20
1025.2502341117729
 30
0.0
 42
-0.2823827117993129
  0
VERTEX
  5
445
  8
0
 10
-12533.453104126571
 20
1023.346210993351
 30
0.0
 42
-0.1766976244461863
  0
VERTEX
  5
446
  8
0
 10
-12536.72190509499
 20
1025.852377921864
 30
0.0
 42
0.1773270153938223
  0
VERTEX
  5
447
  8
0
 10
-12539.98285407307
 20
1028.346210993351
 30
0.0
 42
0.2058351738198912
  0
VERTEX
  5
448
  8
0
 10
-12550.54744854841
 20
1027.242164793704
 30
0.0
 42
-0.1331294588025776
  0
VERTEX
  5
449
  8
0
 10
-12566.101828647919
 20
1023.346210993351
 30
0.0
 42
-0.0832255166851424
  0
VERTEX
  5
44A
  8
0
 10
-12583.32942660474
 20
1026.5763661501319
 30
0.0
 42
0.1097242647440611
  0
VERTEX
  5
44B
  8
0
 10
-12596.57399506496
 20
1028.34621099335
 30
0.0
 42
0.1094066769750613
  0
VERTEX
  5
44C
  8
0
 10
-12604.95733718944
 20
1025.71910103137
 30
0.0
 42
-0.0002339245184536
  0
VERTEX
  5
44D
  8
0
 10
-12604.972008763971
 20
1025.7106780669601
 30
0.0
 42
-0.1635239807755977
  0
SEQEND
  5
44E
  8
0
  0
POLYLINE
  5
44F
  8
0
 66
     1
 10
0.0
 20
0.0
 30
0.0
  0
VERTEX
  5
450
  8
0
 10
-11411.11322600068
 20
1028.346210993351
 30
0.0
 42
0.0916670738403237
  0
VERTEX
  5
451
  8
0
 10
-11400.27880280882
 20
1023.570201060533
 30
0.0
 42
0.1056979417585127
  0
VERTEX
  5
452
  8
0
 10
-11389.98439641209
 20
1023.346210993351
 30
0.0
 42
0.1078418749257769
  0
VERTEX
  5
453
  8
0
 10
-11382.437840184701
 20
1026.5699187129539
 30
0.0
 42
-0.1546478595467482
  0
VERTEX
  5
454
  8
0
 10
-11376.924896519071
 20
1028.346210993351
 30
0.0
 42
-0.1804007426235365
  0
VERTEX
  5
455
  8
0
 10
-11370.6004887983
 20
1026.0223724117329
 30
0.0
 42
0.1669612857236485
  0
VERTEX
  5
456
  8
0
 10
-11363.86542183725
 20
1023.346210993351
 30
0.0
 42
0.1377807434661302
  0
VERTEX
  5
457
  8
0
 10
-11354.83872538134
 20
1025.4263628368069
 30
0.0
 42
-0.1158283502867649
  0
VERTEX
  5
458
  8
0
 10
-11344.276171997721
 20
1028.346210993351
 30
0.0
 42
-0.1260058766128204
  0
VERTEX
  5
459
  8
0
 10
-11331.094985057571
 20
1025.5143997854759
 30
0.0
 42
0.1416031919178112
  0
VERTEX
  5
45A
  8
0
 10
-11319.24548908064
 20
1023.346210993351
 30
0.0
 42
0.1182297497458096
  0
VERTEX
  5
45B
  8
0
 10
-11312.27942191808
 20
1025.776929636012
 30
0.0
 42
-0.1142582045074363
  0
VERTEX
  5
45C
  8
0
 10
-11305.09769752986
 20
1028.346210993351
 30
0.0
 42
-0.2321895392944741
  0
VERTEX
  5
45D
  8
0
 10
-11296.352695375221
 20
1025.2502341117729
 30
0.0
 42
0.2823827117993129
  0
VERTEX
  5
45E
  8
0
 10
-11288.77334787479
 20
1023.346210993351
 30
0.0
 42
0.1766976244461863
  0
VERTEX
  5
45F
  8
0
 10
-11285.50454690637
 20
1025.852377921864
 30
0.0
 42
-0.1773270153938223
  0
VERTEX
  5
460
  8
0
 10
-11282.24359792828
 20
1028.346210993351
 30
0.0
 42
-0.2058351738198912
  0
VERTEX
  5
461
  8
0
 10
-11271.67900345294
 20
1027.242164793704
 30
0.0
 42
0.1331294588025776
  0
VERTEX
  5
462
  8
0
 10
-11256.12462335344
 20
1023.346210993351
 30
0.0
 42
0.0832255166851424
  0
VERTEX
  5
463
  8
0
 10
-11238.89702539662
 20
1026.5763661501319
 30
0.0
 42
-0.1097242647440611
  0
VERTEX
  5
464
  8
0
 10
-11225.652456936399
 20
1028.34621099335
 30
0.0
 42
-0.1094066769750613
  0
VERTEX
  5
465
  8
0
 10
-11217.26911481191
 20
1025.71910103137
 30
0.0
 42
0.0002339245184789
  0
VERTEX
  5
466
  8
0
 10
-11217.25444323738
 20
1025.710678066961
 30
0.0
 42
0.1635239807755977
  0
SEQEND
  5
467
  8
0
  0
LINE
  5
4E8
  8
0
 10
-12411.11322600068
 20
950.93230741486866
 30
0.0
 11
-12411.11322600068
 21
1030.060101343433
 31
0.0
  0
LINE
  5
4E9
  8
0
 10
-11411.11322600068
 20
950.93230741486866
 30
0.0
 11
-11411.11322600068
 21
1030.060101343433
 31
0.0
  0
POLYLINE
  5
505
  8
0
 66
     1
 10
0.0
 20
0.0
 30
0.0
  0
VERTEX
  5
848
  8
0
 10
-12411.11322600068
 20
1023.341150527257
 30
0.0
  0
VERTEX
  5
849
  8
0
 10
-12398.74086981499
 20
1029.292920155375
 30
0.0
  0
VERTEX
  5
84A
  8
0
 10
-12392.20856654389
 20
1024.1091220043229
 30
0.0
  0
VERTEX
  5
84B
  8
0
 10
-12381.11322600068
 20
1028.346210993351
 30
0.0
  0
VERTEX
  5
84C
  8
0
 10
-12359.98439641209
 20
1023.346210993351
 30
0.0
  0
VERTEX
  5
84D
  8
0
 10
-12346.924896519071
 20
1028.346210993351
 30
0.0
  0
VERTEX
  5
84E
  8
0
 10
-12333.86542183725
 20
1023.346210993351
 30
0.0
  0
VERTEX
  5
84F
  8
0
 10
-12314.276171997721
 20
1028.346210993351
 30
0.0
  0
VERTEX
  5
850
  8
0
 10
-12289.24548908064
 20
1023.346210993351
 30
0.0
  0
VERTEX
  5
851
  8
0
 10
-12275.09769752986
 20
1028.346210993351
 30
0.0
  0
VERTEX
  5
852
  8
0
 10
-12258.77334787479
 20
1023.346210993351
 30
0.0
  0
VERTEX
  5
853
  8
0
 10
-12252.24359792828
 20
1028.346210993351
 30
0.0
  0
VERTEX
  5
854
  8
0
 10
-12226.12462335344
 20
1023.346210993351
 30
0.0
  0
VERTEX
  5
855
  8
0
 10
-12195.652456936399
 20
1028.34621099335
 30
0.0
  0
VERTEX
  5
856
  8
0
 10
-12179.328107281321
 20
1023.346210993351
 30
0.0
  0
VERTEX
  5
857
  8
0
 10
-12160.82714909955
 20
1028.346210993351
 30
0.0
  0
VERTEX
  5
858
  8
0
 10
-12144.50279944447
 20
1023.346210993351
 30
0.0
  0
VERTEX
  5
859
  8
0
 10
-12110.765783265369
 20
1028.346210993351
 30
0.0
  0
VERTEX
  5
85A
  8
0
 10
-12098.794575030101
 20
1023.346210993351
 30
0.0
  0
VERTEX
  5
85B
  8
0
 10
-12068.32243382426
 20
1028.346210993351
 30
0.0
  0
VERTEX
  5
85C
  8
0
 10
-12038.938559064971
 20
1023.346210993351
 30
0.0
  0
VERTEX
  5
85D
  8
0
 10
-12007.37812620138
 20
1028.346210993351
 30
0.0
  0
VERTEX
  5
85E
  8
0
 10
-11994.31865151955
 20
1023.346210993351
 30
0.0
  0
VERTEX
  5
85F
  8
0
 10
-11961.669901787011
 20
1028.346210993351
 30
0.0
  0
VERTEX
  5
860
  8
0
 10
-11945.34555213193
 20
1023.346210993351
 30
0.0
  0
VERTEX
  5
861
  8
0
 10
-11923.5797189769
 20
1028.346210993351
 30
0.0
  0
VERTEX
  5
862
  8
0
 10
-11902.902202690821
 20
1023.346210993351
 30
0.0
  0
VERTEX
  5
863
  8
0
 10
-11873.51835314273
 20
1028.346210993351
 30
0.0
  0
VERTEX
  5
864
  8
0
 10
-11849.57593667219
 20
1023.346210993351
 30
0.0
  0
VERTEX
  5
865
  8
0
 10
-11819.10379546635
 20
1028.346210993351
 30
0.0
  0
VERTEX
  5
866
  8
0
 10
-11815.83892049309
 20
1023.346210993351
 30
0.0
  0
VERTEX
  5
867
  8
0
 10
-11788.6316542605
 20
1028.346210993351
 30
0.0
  0
VERTEX
  5
868
  8
0
 10
-11759.24780471241
 20
1023.346210993351
 30
0.0
  0
VERTEX
  5
869
  8
0
 10
-11741.835138188389
 20
1028.346210993351
 30
0.0
  0
VERTEX
  5
86A
  8
0
 10
-11722.245913560049
 20
1023.346210993351
 30
0.0
  0
VERTEX
  5
86B
  8
0
 10
-11701.56837206278
 20
1028.346210993351
 30
0.0
  0
VERTEX
  5
86C
  8
0
 10
-11678.714272461189
 20
1023.346210993351
 30
0.0
  0
VERTEX
  5
86D
  8
0
 10
-11661.301605937169
 20
1028.346210993351
 30
0.0
  0
VERTEX
  5
86E
  8
0
 10
-11633.006048046829
 20
1023.346210993351
 30
0.0
  0
VERTEX
  5
86F
  8
0
 10
-11616.68167318055
 20
1028.346210993351
 30
0.0
  0
VERTEX
  5
870
  8
0
 10
-11602.533906840979
 20
1023.346210993351
 30
0.0
  0
VERTEX
  5
871
  8
0
 10
-11588.38611529021
 20
1028.346210993351
 30
0.0
  0
VERTEX
  5
872
  8
0
 10
-11576.414907054939
 20
1023.34621099335
 30
0.0
  0
VERTEX
  5
873
  8
0
 10
-11561.17884905762
 20
1028.346210993351
 30
0.0
  0
VERTEX
  5
874
  8
0
 10
-11543.7661825336
 20
1023.346210993351
 30
0.0
  0
VERTEX
  5
875
  8
0
 10
-11526.353541220769
 20
1028.346210993351
 30
0.0
  0
VERTEX
  5
876
  8
0
 10
-11510.029166354499
 20
1023.346210993351
 30
0.0
  0
VERTEX
  5
877
  8
0
 10
-11502.411124750241
 20
1028.346210993351
 30
0.0
  0
VERTEX
  5
878
  8
0
 10
-11486.08677509516
 20
1023.346210993351
 30
0.0
  0
VERTEX
  5
879
  8
0
 10
-11474.115566859889
 20
1028.34621099335
 30
0.0
  0
VERTEX
  5
87A
  8
0
 10
-11463.23265028238
 20
1023.346210993351
 30
0.0
  0
VERTEX
  5
87B
  8
0
 10
-11455.614608678119
 20
1028.346210993351
 30
0.0
  0
VERTEX
  5
87C
  8
0
 10
-11447.99659228505
 20
1023.346210993351
 30
0.0
  0
VERTEX
  5
87D
  8
0
 10
-11441.11322600068
 20
1028.346210993351
 30
0.0
  0
VERTEX
  5
87E
  8
0
 10
-11430.06588800616
 20
1023.934882091854
 30
0.0
  0
VERTEX
  5
87F
  8
0
 10
-11421.804451949711
 20
1028.158715896577
 30
0.0
  0
VERTEX
  5
880
  8
0
 10
-11411.11322600068
 20
1024.5108513805139
 30
0.0
  0
SEQEND
  5
881
  8
0
  0
LINE
  5
507
  8
0
 10
-11411.11322600068
 20
1024.5108513805139
 30
0.0
 11
-11411.11322600068
 21
1028.346210993351
 31
0.0
  0
LINE
  5
511
  8
0
 10
-12411.11322600068
 20
1028.346210993351
 30
0.0
 11
-12411.11322600068
 21
1023.341150527257
 31
0.0
  0
LINE
  5
6D5
  8
0
 10
-9525.8612428787383
 20
2929.6172637458399
 30
0.0
 11
-9525.8612428787383
 21
1679.617061745837
 31
0.0
  0
DIMENSION
  5
6EF
  8
0
  2
*D9
 10
-9268.8257591542933
 20
2929.6172637458399
 30
0.0
 11
-9359.9171643384689
 21
2304.617162745837
 31
0.0
 70
     0
 13
-9525.8612428787383
 23
1679.617061745837
 33
0.0
 14
-9525.8612428787383
 24
2929.6172637458399
 34
0.0
 50
90.0
1001
ACAD
1000
DSTYLE
1002
{
1070
   287
1070
     5
1070
    41
1040
50.0
1070
    42
1040
40.0
1070
    43
1040
40.0
1070
    44
1040
1.25
1070
    73
1070
     0
1070
    74
1070
     0
1070
    77
1070
     1
1070
    78
1070
     8
1070
   140
1040
100.0
1070
   141
1040
2.5
1070
   143
1040
0.0394
1070
   146
1040
0.0625
1070
   147
1040
40.0
1070
   172
1070
     1
1070
   271
1070
     0
1070
   272
1070
     0
1070
   279
1070
     2
1070
   284
1070
     8
1070
   285
1070
     8
1070
   286
1070
     8
1002
}
  0
LINE
  5
71F
  8
0
 10
-12411.11322600068
 20
910.93230741486877
 30
0.0
 11
-12411.11322600068
 21
711.14549341656675
 31
0.0
  0
LINE
  5
720
  8
0
 10
-11411.11322600068
 20
910.93230741486877
 30
0.0
 11
-11411.11322600068
 21
711.14549341656675
 31
0.0
  0
LINE
  5
721
  8
0
 10
-12361.11322600068
 20
712.39549341656675
 30
0.0
 11
-11461.11322600068
 21
712.39549341656675
 31
0.0
  0
SOLID
  5
722
  8
0
 10
-12361.11322600068
 20
720.72882674990012
 30
0.0
 11
-12361.11322600068
 21
704.06216008323327
 31
0.0
 12
-12411.11322600068
 22
712.39549341656675
 32
0.0
 13
-12411.11322600068
 23
712.39549341656675
 33
0.0
  0
SOLID
  5
723
  8
0
 10
-11461.11322600068
 20
720.72882674990012
 30
0.0
 11
-11461.11322600068
 21
704.06216008323327
 31
0.0
 12
-11411.11322600068
 22
712.39549341656675
 32
0.0
 13
-11411.11322600068
 23
712.39549341656675
 33
0.0
  0
TEXT
  5
725
  8
0
 10
-11989.4474065059
 20
754.33955890087782
 30
0.0
 40
100.0
  1
50
  0
DIMENSION
  5
726
  8
0
  2
*D11
 10
-9825.8612488787403
 20
3104.9151090110508
 30
0.0
 11
-9675.8612458787393
 21
3217.2565141952259
 31
0.0
 70
     0
 13
-9525.8612428787383
 23
2929.6172637458399
 33
0.0
 14
-9825.8612488787403
 24
2929.6173257458399
 34
0.0
1001
ACAD
1000
DSTYLE
1002
{
1070
   287
1070
     5
1070
    41
1040
50.0
1070
    42
1040
40.0
1070
    43
1040
40.0
1070
    44
1040
1.25
1070
    73
1070
     0
1070
    74
1070
     0
1070
    77
1070
     1
1070
    78
1070
     8
1070
   140
1040
100.0
1070
   141
1040
2.5
1070
   143
1040
0.0394
1070
   146
1040
0.0625
1070
   147
1040
40.0
1070
   172
1070
     1
1070
   271
1070
     0
1070
   272
1070
     0
1070
   279
1070
     2
1070
   284
1070
     8
1070
   285
1070
     8
1070
   286
1070
     8
1002
}
  0
LINE
  5
756
  8
0
 10
-13590.861326878739
 20
2969.6173257458399
 30
0.0
 11
-13590.861326878739
 21
3339.0869270900462
 31
0.0
  0
LINE
  5
757
  8
0
 10
-9525.8612428787383
 20
2969.6173257458399
 30
0.0
 11
-9525.8612428787383
 21
3339.0869270900462
 31
0.0
  0
LINE
  5
758
  8
0
 10
-13540.861326878739
 20
3337.8369270900462
 30
0.0
 11
-9575.8612428787383
 21
3337.8369270900462
 31
0.0
  0
SOLID
  5
759
  8
0
 10
-13540.861326878739
 20
3346.1702604233801
 30
0.0
 11
-13540.861326878739
 21
3329.5035937567118
 31
0.0
 12
-13590.861326878739
 22
3337.8369270900462
 32
0.0
 13
-13590.861326878739
 23
3337.8369270900462
 33
0.0
  0
SOLID
  5
75A
  8
0
 10
-9575.8612428787383
 20
3346.1702604233801
 30
0.0
 11
-9575.8612428787383
 21
3329.5035937567118
 31
0.0
 12
-9525.8612428787383
 22
3337.8369270900462
 32
0.0
 13
-9525.8612428787383
 23
3337.8369270900462
 33
0.0
  0
INSERT
  5
75B
  8
0
  2
*U29
 10
0.0
 20
0.0
 30
0.0
  0
DIMENSION
  5
75C
  8
0
  2
*D13
 10
-11325.861325878741
 20
3106.1651090110508
 30
0.0
 11
-10575.861287378741
 21
3197.2565141952259
 31
0.0
 70
     0
 13
-9825.8612488787403
 23
2929.6173257458399
 33
0.0
 14
-11325.861325878741
 24
2929.6173257458399
 34
0.0
1001
ACAD
1000
DSTYLE
1002
{
1070
   287
1070
     5
1070
    41
1040
50.0
1070
    42
1040
40.0
1070
    43
1040
40.0
1070
    44
1040
1.25
1070
    73
1070
     0
1070
    74
1070
     0
1070
    77
1070
     1
1070
    78
1070
     8
1070
   140
1040
100.0
1070
   141
1040
2.5
1070
   143
1040
0.0394
1070
   146
1040
0.0625
1070
   147
1040
40.0
1070
   172
1070
     1
1070
   271
1070
     0
1070
   272
1070
     0
1070
   279
1070
     2
1070
   284
1070
     8
1070
   285
1070
     8
1070
   286
1070
     8
1002
}
  0
DIMENSION
  5
774
  8
0
  2
*D14
 10
-11325.861325878741
 20
3106.1651090110508
 30
0.0
 11
-11825.861325878741
 21
3197.2565141952259
 31
0.0
 70
     0
 13
-12325.861325878741
 23
2929.6173257458399
 33
0.0
 14
-11325.861325878741
 24
2929.6173257459131
 34
0.0
1001
ACAD
1000
DSTYLE
1002
{
1070
   287
1070
     5
1070
    41
1040
50.0
1070
    42
1040
40.0
1070
    43
1040
40.0
1070
    44
1040
1.25
1070
    73
1070
     0
1070
    74
1070
     0
1070
    77
1070
     1
1070
    78
1070
     8
1070
   140
1040
100.0
1070
   141
1040
2.5
1070
   143
1040
0.0394
1070
   146
1040
0.0625
1070
   147
1040
40.0
1070
   172
1070
     1
1070
   271
1070
     0
1070
   272
1070
     0
1070
   279
1070
     2
1070
   284
1070
     8
1070
   285
1070
     8
1070
   286
1070
     8
1002
}
  0
DIMENSION
  5
795
  8
0
  2
*D15
 10
-12825.861325878741
 20
3106.1651090110508
 30
0.0
 11
-12575.861325878741
 21
3197.2565141952259
 31
0.0
 70
     0
 13
-12325.861325878741
 23
2929.6173257458399
 33
0.0
 14
-12825.861325878741
 24
2929.6173257458399
 34
0.0
1001
ACAD
1000
DSTYLE
1002
{
1070
   287
1070
     5
1070
    41
1040
50.0
1070
    42
1040
40.0
1070
    43
1040
40.0
1070
    44
1040
1.25
1070
    73
1070
     0
1070
    74
1070
     0
1070
    77
1070
     1
1070
    78
1070
     8
1070
   140
1040
100.0
1070
   141
1040
2.5
1070
   143
1040
0.0394
1070
   146
1040
0.0625
1070
   147
1040
40.0
1070
   172
1070
     1
1070
   271
1070
     0
1070
   272
1070
     0
1070
   279
1070
     2
1070
   284
1070
     8
1070
   285
1070
     8
1070
   286
1070
     8
1002
}
  0
LINE
  5
7CE
  8
0
 10
-13590.861326878739
 20
2969.6173257458399
 30
0.0
 11
-13590.861326878739
 21
3107.3024963984381
 31
0.0
  0
LINE
  5
7CF
  8
0
 10
-12825.861325878741
 20
2969.617325745895
 30
0.0
 11
-12825.861325878741
 21
3107.3024963984381
 31
0.0
  0
LINE
  5
7D0
  8
0
 10
-13540.861326878739
 20
3106.0524963984381
 30
0.0
 11
-12875.861325878741
 21
3106.0524963984381
 31
0.0
  0
SOLID
  5
7D1
  8
0
 10
-13540.861326878739
 20
3114.385829731772
 30
0.0
 11
-13540.861326878739
 21
3097.719163065105
 31
0.0
 12
-13590.861326878739
 22
3106.0524963984381
 32
0.0
 13
-13590.861326878739
 23
3106.0524963984381
 33
0.0
  0
SOLID
  5
7D2
  8
0
 10
-12875.861325878741
 20
3114.385829731772
 30
0.0
 11
-12875.861325878741
 21
3097.719163065105
 31
0.0
 12
-12825.861325878741
 22
3106.0524963984381
 32
0.0
 13
-12825.861325878741
 23
3106.0524963984381
 33
0.0
  0
INSERT
  5
7D3
  8
0
  2
*U31
 10
0.0
 20
0.0
 30
0.0
  0
LINE
  5
818
  8
0
 10
-12606.2680826328
 20
1023.341150527256
 30
0.0
 11
-12713.885479845399
 21
1023.341150527256
 31
0.0
  0
LINE
  5
819
  8
0
 10
-12606.2680826328
 20
1030.060101343433
 30
0.0
 11
-12713.885479845399
 21
1030.060101343433
 31
0.0
  0
LINE
  5
81A
  8
0
 10
-12712.635479845399
 20
973.3411505272561
 30
0.0
 11
-12712.635479845399
 21
923.3411505272561
 31
0.0
  0
LINE
  5
81B
  8
0
 10
-12712.635479845399
 20
1080.060101343433
 30
0.0
 11
-12712.635479845399
 21
1130.060101343433
 31
0.0
  0
LINE
  5
81D
  8
0
 10
-12712.635479845399
 20
1023.341150527256
 30
0.0
 11
-12712.635479845399
 21
1030.060101343433
 31
0.0
  0
SOLID
  5
81E
  8
0
 10
-12720.96881317873
 20
973.3411505272561
 30
0.0
 11
-12704.30214651206
 21
973.3411505272561
 31
0.0
 12
-12712.635479845399
 22
1023.341150527256
 32
0.0
 13
-12712.635479845399
 23
1023.341150527256
 33
0.0
  0
SOLID
  5
81F
  8
0
 10
-12720.96881317873
 20
1080.060101343433
 30
0.0
 11
-12704.30214651206
 21
1080.060101343433
 31
0.0
 12
-12712.635479845399
 22
1030.060101343433
 32
0.0
 13
-12712.635479845399
 23
1030.060101343433
 33
0.0
  0
TEXT
  5
821
  8
0
 10
-12755.39236396158
 20
976.815116002178
 30
0.0
 40
100.0
  1
1
 50
90.0
  0
ENDSEC
  0
EOF
